Jump to content
Cor

demolist capturing (in-game and off-screen) and capture resolution

Recommended Posts

Hello,

After a lot of testing with demolist there are some things I'm still unsure about. I'll divide my post into 3 questions:

1. /demolist in-game

How does /demolist decide to capture either in avi, or in pipe? I'm asking because at some point it was capturing in avi, and then later, I can't remember what I've changed, it captured in pipe and stayed that way. Let me explain furthermore what I've tried. When I run a fresh jampconfig and first change the few cvars that I want, and then run a /demolist, the video capture doesn't work, instead it captures dozens of png files. But if I go back to jamme (same jampconfig), go into a demo and manually capture with /capture pipe 60 projectname, the capture works that time, and THEN, if I go back to jamme again (same jampconfig) and run the same demolist, from this point on the demolist will work, capturing in pipe unless I delete my jampconfig again. 

What changed in the permanent settings of jamme for this to happen?

2. demolist off-screen

Here is my batch file for off-screen demolist capturing:

Spoiler

@echo off
Start jamme +set fs_game "mme" +set mme_renderWidth "1920" +set mme_renderHeight "1080" +set r_multisample "0" +set r_multisampleNvidia "0" +set r_anisotropy "0" +set r_picmip "0" +demolist "soq.txt"
Exit

I based it on the one in the demolist tutorial. All these settings are usually set at "0" in my jampconfig. But as @ent mentions in the tutorial, either renderwidth, renderheight or r_multisample has to be above "0" for the demolist to work. Although, if I run this batch file, let the demolist finish, and then try to run jamme myself (with start_jamme), that won't work because the window will be still be a miniature black window just like the demolist capture. I have to go into jampconfig and set back the settings to 0. 

I previously had a batch file that had values for r_multisample, r_multisamplenvidia and r_anisotropy, and I also had to set those back to 0 in jampconfig for jamme to run after running the demolist. 

Is there a way that demolist won't screw with my jampconfig? And also, are my captures gonna result in a lower-quality image because I have these other graphical settings set to 0? Finally, what is r_picmip?

3. Capture resolution?

What jamme setting actually sets the CAPTURE resolution, as in the resolution of the video file it will result in? Is that r_customwidth and r_customheight in the jampconfig (of mme folder)? If that is so, what is mme_renderwidth and mme_renderheight? If I have a 1080p resolution in r_customwidth and r_customheight and a 720p resolution in mme_renderwidth and mme_renderheight, what resolution will it capture in? 

As a side-question, would you recommend capturing 4k in jamme? I'm going for a film look in the video I'm making by the way.

 

Thanks a ton for reading/replying to this, and sorry for the long post, I'm a bit confused by some of the settings I suppose!

Share this post


Link to post

Hello.

Good questions.

1. Every demo that gets loaded from demolist also loads its respectful project file as you may know. And every project file contains a bunch of cvars that was saved together. Those cvars then get loaded with their project file.

Here is a list of cvars that are saved into a project file by default: https://github.com/entdark/jaMME/blob/master/codemp/cgame/cg_demos_capture.c#L184

What you can do to with all that.

  • Remove all cvars from every project so the whole thing will only use cvars from your game config. Project files are simple XML files and could be edited in any text processor.
  • Modify every project and set or replace data with needed cvars and needed values.
  • Add mov_captureCvars into your game config with only needed cvars for saving into project files for future demos.
  • Open every demo and load and save project in every and update them with current cvars.

The cvar that messes up pipe and avi is mme_screenShotFormat.

2. There is no way to autoreset demolist values. But it sounds like a good addition to have. I will probably add that.

3. jaMME captures with r_customwidth and r_customheight values when it is loaded normally. It captures with mme_renderwidth and mme_renderheight when they are set to more than 0. That is the point of off-screen capturing to capturing in higher resulution.

Demolist itself could be run on-screen if your desired resolution is less or equal your game resolution.

As a side-answer modern kids don't accept anything below 4k60fps so go for it. But to be serious it does not matter much if the content delivers. For working with high bitrate videos your machine also has to be pretty high end - keep that in mind.

If you are looking for a film look as you say then check out DOF feature and low FOV (cg_fov) when using DOF and slow camera movement. Pretty cinematic. But I am not an expert.

Also as a side-information 1080p, 720p etc are video formats. Resolution formats are FullHD, HD etc.

Good luck.

Share this post


Link to post

Thanks, that clears all that up!

As for 4k, I've just tested capturing with it and watched it on both a 1080p screen and a 4k screen (my tv) and I have to say the difference is noticeable. I particularly like the smoothness of the edges (players or objects). But capturing a 4k clip at 60fps with blurframes 32 did take several minutes, a pretty long time. I wonder if I can really take all that rendering time for the whole video.

I've tried cpuSSE2 but the capturing actually took longer. Is there any other cvar that I can change to help speed up the process? Is workmegs related to that? (I'm of course capturing in pipe)

Edit: I've just timed capturing a 4k 60fps 1 second clip with blurframes 32, it took 2 minutes 10 seconds.

Share this post


Link to post

There is not other way, it merges all the captured blur frames - it takes time. If you want to make things go faster, higher frequency of your CPU.

I'd suggest before capturing final footages that take time, capture everything in lower resolution, adjust settings if necessarily and when you are ready just leave everything for a night to capture with demolist.

Share this post


Link to post

Thank for the advice, I might do that. 

I have an 8 years old CPU, but I'm upgrading at the end of this month. 

Share this post


Link to post

Hi again, I'm encountering a new problem with off-screen demolist capturing. 

The demolist that I set, no matter what project files it runs and what demos, will not capture more than 2 projects at a time. After the second, it crashes and the jamp window appears telling me about the error, which I can't decipher. I've copied the text of the jamp window:

Spoiler

jaMME 1.10 win_msvc-x86 May 26 2016
----- FS_Startup -----
Current search path:
C:\Program Files (x86)\LucasArts\Star Wars Jedi Knight Jedi Academy\GameData\mme\zjamme_consolebg.pk3 (35 files)
C:\Program Files (x86)\LucasArts\Star Wars Jedi Knight Jedi Academy\GameData\mme\JKA Tex Overhaul 0.3.pk3 (1070 files)
C:\Program Files (x86)\LucasArts\Star Wars Jedi Knight Jedi Academy\GameData\mme\ajamme_consolebg.pk3 (3 files)
C:\Program Files (x86)\LucasArts\Star Wars Jedi Knight Jedi Academy\GameData\mme
C:\Program Files (x86)\LucasArts\Star Wars Jedi Knight Jedi Academy\GameData\base\sw_scope.pk3 (9 files)
C:\Program Files (x86)\LucasArts\Star Wars Jedi Knight Jedi Academy\GameData\base\soq_assets.pk3 (10061 files)
C:\Program Files (x86)\LucasArts\Star Wars Jedi Knight Jedi Academy\GameData\base\glowwhite.pk3 (3 files)
C:\Program Files (x86)\LucasArts\Star Wars Jedi Knight Jedi Academy\GameData\base\assets3.pk3 (16 files)
C:\Program Files (x86)\LucasArts\Star Wars Jedi Knight Jedi Academy\GameData\base\assets2.pk3 (62 files)
C:\Program Files (x86)\LucasArts\Star Wars Jedi Knight Jedi Academy\GameData\base\assets1.pk3 (8320 files)
C:\Program Files (x86)\LucasArts\Star Wars Jedi Knight Jedi Academy\GameData\base\assets0.pk3 (15346 files)
C:\Program Files (x86)\LucasArts\Star Wars Jedi Knight Jedi Academy\GameData\base

----------------------
34925 files in pk3 files
execing mpdefault.cfg
execing jampconfig.cfg
couldn't exec autoexec.cfg

------- Input Initialization -------
Skipping check for DirectInput
Joystick is not active.
------------------------------------
Cmd_AddCommand: demoListNext already defined
----- Initializing Renderer ----
Trying to load "rd-jamme_x86.dll" from "C:\Program Files (x86)\LucasArts\Star Wars Jedi Knight Jedi Academy\GameData"...
----- Client Initialization Complete -----
...initializing QGL
succeeded
...created window@0,0 (336x239)
Initializing OpenGL driver
...getting DC: succeeded
...GLW_ChoosePFD( 0, 16, 0 )
...219 PFDs found
...hardware acceleration found
...PIXELFORMAT 89 selected
...creating GL context: succeeded
...making context current: succeeded
...Found WGL_ARB_pixel_format extension
...Found WGL_ARB_pbuffer extension
Pbuffer Created: (3840 x 2160) samples 0 format 3
Initializing OpenGL extensions
...GL_S3_s3tc available
...GL_EXT_texture_compression_s3tc available
...no tc preference specified
.....using GL_EXT_texture_compression_s3tc
...using GL_EXT_texture_env_add
...GL_EXT_texture_filter_anisotropic available
...using GL_EXT_texture_filter_anisotropic
...Using GL_EXT_texture_edge_clamp
...using WGL_EXT_swap_control
...using GL_ARB_multitexture
...using GL_EXT_compiled_vertex_array
...using GL_EXT_point_parameters
...using GL_EXT_texture_filter_anisotropic (max: 16)
...using GL_EXT_framebuffer_object
...using GL_ARB_fragment_program
...using GL_ARB_vertex_program
...using GL_ARB_shading_language_100

GL_VENDOR: NVIDIA Corporation
GL_RENDERER: GeForce GTX 960/PCIe/SSE2
GL_VERSION: 4.6.0 NVIDIA 440.97
GL_AMD_multi_draw_indirect GL_AMD_seamless_cubemap_per_texture GL_AMD_vertex_shader_viewport_index GL_AMD_vertex_shader_layer GL_ARB_arrays_of_arrays GL_ARB_base_instance GL_ARB_bindless_texture GL_ARB_blend_func_extended GL_ARB_buffer_storage GL_ARB_clear_buffer_object GL_ARB_clear_texture GL_ARB_clip_control GL_ARB_color_buffer_float GL_ARB_compatibility GL_ARB_compressed_texture_pixel_storage GL_ARB_conservative_depth GL_ARB_compute_shader GL_ARB_compute_variable_group_size GL_ARB_conditional_render_inverted GL_ARB_copy_buffer GL_ARB_copy_image GL_ARB_cull_distance GL_ARB_debug_output GL_ARB_depth_buffer_float GL_ARB_depth_clamp GL_ARB_depth_texture GL_ARB_derivative_control GL_ARB_direct_state_access GL_ARB_draw_buffers GL_ARB_draw_buffers_blend GL_ARB_draw_indirect GL_ARB_draw_elements_base_vertex GL_ARB_draw_instanced GL_ARB_enhanced_layouts GL_ARB_ES2_compatibility GL_ARB_ES3_compatibility GL_ARB_ES3_1_compatibility GL_ARB_ES3_2_compatibility GL_ARB_explicit_attrib_location GL_ARB_explicit_uniform_location GL_ARB_fragment_coord_conventions GL_ARB_fragment_layer_viewport GL_ARB_fragment_program GL_ARB_fragment_program_shadow GL_ARB_fragment_shader GL_ARB_fragment_shader_interlock GL_ARB_framebuffer_no_attachments GL_ARB_framebuffer_object GL_ARB_framebuffer_sRGB GL_ARB_geometry_shader4 GL_ARB_get_program_binary GL_ARB_get_texture_sub_image GL_ARB_gl_spirv GL_ARB_gpu_shader5 GL_ARB_gpu_shader_fp64 GL_ARB_gpu_shader_int64 GL_ARB_half_float_pixel GL_ARB_half_float_vertex GL_ARB_imaging GL_ARB_indirect_parameters GL_ARB_instanced_arrays GL_ARB_internalformat_query GL_ARB_internalformat_query2 GL_ARB_invalidate_subdata GL_ARB_map_buffer_alignment GL_ARB_map_buffer_range GL_ARB_multi_bind GL_ARB_multi_draw_indirect GL_ARB_multisample GL_ARB_multitexture GL_ARB_occlusion_query GL_ARB_occlusion_query2 GL_ARB_parallel_shader_compile GL_ARB_pipeline_statistics_query GL_ARB_pixel_buffer_object GL_ARB_point_parameters GL_ARB_point_sprite GL_ARB_polygon_offset_clamp GL_ARB_post_depth_coverage GL_ARB_program_interface_query GL_ARB_provoking_vertex GL_ARB_query_buffer_object GL_ARB_robust_buffer_access_behavior GL_ARB_robustness GL_ARB_sample_locations GL_ARB_sample_shading GL_ARB_sampler_objects GL_ARB_seamless_cube_map GL_ARB_seamless_cubemap_per_texture GL_ARB_separate_shader_objects GL_ARB_shader_atomic_counter_ops GL_ARB_shader_atomic_counters GL_ARB_shader_ballot GL_ARB_shader_bit_encoding GL_ARB_shader_clock GL_ARB_shader_draw_parameters GL_ARB_shader_group_vote GL_ARB_shader_image_load_store GL_ARB_shader_image_size GL_ARB_shader_objects GL_ARB_shader_precision GL_ARB_shader_storage_buffer_object GL_ARB_shader_subroutine GL_ARB_shader_texture_image_samples GL_ARB_shader_texture_lod GL_ARB_shading_language_100 GL_ARB_shader_viewport_layer_array GL_ARB_shading_language_420pack GL_ARB_shading_language_include GL_ARB_shading_language_packing GL_ARB_shadow GL_ARB_sparse_buffer GL_ARB_sparse_texture GL_ARB_sparse_texture2 GL_ARB_sparse_texture_clamp GL_ARB_spirv_extensions GL_ARB_stencil_texturing GL_ARB_sync GL_ARB_tessellation_shader GL_ARB_texture_barrier GL_ARB_texture_border_clamp GL_ARB_texture_buffer_object GL_ARB_texture_buffer_object_rgb32 GL_ARB_texture_buffer_range GL_ARB_texture_compression GL_ARB_texture_compression_bptc GL_ARB_texture_compression_rgtc GL_ARB_texture_cube_map GL_ARB_texture_cube_map_array GL_ARB_texture_env_add GL_ARB_texture_env_combine GL_ARB_texture_env_crossbar GL_ARB_texture_env_dot3 GL_ARB_texture_filter_anisotropic GL_ARB_texture_filter_minmax GL_ARB_texture_float GL_ARB_texture_gather GL_ARB_texture_mirror_clamp_to_edge GL_ARB_texture_mirrored_repeat GL_ARB_texture_multisample GL_ARB_texture_non_power_of_two GL_ARB_texture_query_levels GL_ARB_texture_query_lod GL_ARB_texture_rectangle GL_ARB_texture_rg GL_ARB_texture_rgb10_a2ui GL_ARB_texture_stencil8 GL_ARB_texture_storage GL_ARB_texture_storage_multisample GL_ARB_texture_swizzle GL_ARB_texture_view GL_ARB_timer_query GL_ARB_transform_feedback2 GL_ARB_transform_feedback3 GL_ARB_transform_feedback_instanced GL_ARB_transform_feedback_overflow_query GL_ARB_transpose_matrix GL_ARB_uniform_buffer_object GL_ARB_vertex_array_bgra GL_ARB_vertex_array_object GL_ARB_vertex_attrib_64bit GL_ARB_vertex_attrib_binding GL_ARB_vertex_buffer_object GL_ARB_vertex_program GL_ARB_vertex_shader GL_ARB_vertex_type_10f_11f_11f_rev GL_ARB_vertex_type_2_10_10_10_rev GL_ARB_viewport_array GL_ARB_window_pos GL_ATI_draw_buffers GL_ATI_texture_float GL_ATI_texture_mirror_once GL_S3_s3tc GL_EXT_texture_env_add GL_EXT_abgr GL_EXT_bgra GL_EXT_bindable_uniform GL_EXT_blend_color GL_EXT_blend_equation_separate GL_EXT_blend_func_separate GL_EXT_blend_minmax GL_EXT_blend_subtract GL_EXT_compiled_vertex_array GL_EXT_Cg_shader GL_EXT_depth_bounds_test GL_EXT_direct_state_access GL_EXT_draw_buffers2 GL_EXT_draw_instanced GL_EXT_draw_range_elements GL_EXT_fog_coord GL_EXT_framebuffer_blit GL_EXT_framebuffer_multisample GL_EXTX_framebuffer_mixed_formats GL_EXT_framebuffer_multisample_blit_scaled GL_EXT_framebuffer_object GL_EXT_framebuffer_sRGB GL_EXT_geometry_shader4 GL_EXT_gpu_program_parameters GL_EXT_gpu_shader4 GL_EXT_multi_draw_arrays GL_EXT_multiview_texture_multisample GL_EXT_multiview_timer_query GL_EXT_packed_depth_stencil GL_EXT_packed_float GL_EXT_packed_pixels GL_EXT_pixel_buffer_object GL_EXT_point_parameters GL_EXT_polygon_offset_clamp GL_EXT_post_depth_coverage GL_EXT_provoking_vertex GL_EXT_raster_multisample GL_EXT_rescale_normal GL_EXT_secondary_color GL_EXT_separate_shader_objects GL_EXT_separate_specular_color GL_EXT_shader_image_load_formatted GL_EXT_shader_image_load_store GL_EXT_shader_integer_mix GL_EXT_shadow_funcs GL_EXT_sparse_texture2 GL_EXT_stencil_two_side GL_EXT_stencil_wrap GL_EXT_texture3D GL_EXT_texture_array GL_EXT_texture_buffer_object GL_EXT_texture_compression_dxt1 GL_EXT_texture_compression_latc GL_EXT_texture_compression_rgtc GL_EXT_texture_compression_s3tc GL_EXT_texture_cube_map GL_EXT_texture_edge_clamp GL_EXT_texture_env_combine GL_EXT_texture_env_dot3 GL_EXT_texture_filter_anisotropic GL_EXT_texture_filter_minmax GL_EXT_texture_integer GL_EXT_texture_lod GL_EXT_texture_lod_bias GL_EXT_texture_mirror_clamp GL_EXT_texture_object GL_EXT_texture_shadow_lod GL_EXT_texture_shared_exponent GL_EXT_texture_sRGB GL_EXT_texture_sRGB_R8 GL_EXT_texture_sRGB_decode GL_EXT_texture_storage GL_EXT_texture_swizzle GL_EXT_timer_query GL_EXT_transform_feedback2 GL_EXT_vertex_array GL_EXT_vertex_array_bgra GL_EXT_vertex_attrib_64bit GL_EXT_window_rectangles GL_EXT_import_sync_object GL_IBM_rasterpos_clip GL_IBM_texture_mirrored_repeat GL_KHR_context_flush_control GL_KHR_debug GL_EXT_memory_object GL_EXT_memory_object_win32 GL_EXT_win32_keyed_mutex GL_KHR_parallel_shader_compile GL_KHR_no_error GL_KHR_robust_buffer_access_behavior GL_KHR_robustness GL_EXT_semaphore GL_EXT_semaphore_win32 GL_KHR_shader_subgroup GL_KTX_buffer_region GL_NV_alpha_to_coverage_dither_control GL_NV_bindless_multi_draw_indirect GL_NV_bindless_multi_draw_indirect_count GL_NV_bindless_texture GL_NV_blend_equation_advanced GL_NV_blend_equation_advanced_coherent GL_NV_blend_minmax_factor GL_NV_blend_square GL_NV_command_list GL_NV_compute_program5 GL_NV_conditional_render GL_NV_conservative_raster GL_NV_conservative_raster_dilate GL_NV_copy_depth_to_color GL_NV_copy_image GL_NV_depth_buffer_float GL_NV_depth_clamp GL_NV_draw_texture GL_NV_draw_vulkan_image GL_NV_ES1_1_compatibility GL_NV_ES3_1_compatibility GL_NV_explicit_multisample GL_NV_feature_query GL_NV_fence GL_NV_fill_rectangle GL_NV_float_buffer GL_NV_fog_distance GL_NV_fragment_coverage_to_color GL_NV_fragment_program GL_NV_fragment_program_option GL_NV_fragment_program2 GL_NV_fragment_shader_interlock GL_NV_framebuffer_mixed_samples GL_NV_framebuffer_multisample_coverage GL_NV_geometry_shader4 GL_NV_geometry_shader_passthrough GL_NV_gpu_program4 GL_NV_internalformat_sample_query GL_NV_gpu_program4_1 GL_NV_gpu_program5 GL_NV_gpu_program5_mem_extended GL_NV_gpu_program_fp64 GL_NV_gpu_shader5 GL_NV_half_float GL_NV_light_max_exponent GL_NV_memory_attachment GL_NV_multisample_coverage GL_NV_multisample_filter_hint GL_NV_occlusion_query GL_NV_packed_depth_stencil GL_NV_parameter_buffer_object GL_NV_parameter_buffer_object2 GL_NV_path_rendering GL_NV_path_rendering_shared_edge GL_NV_pixel_data_range GL_NV_point_sprite GL_NV_primitive_restart GL_NV_query_resource GL_NV_query_resource_tag GL_NV_register_combiners GL_NV_register_combiners2 GL_NV_sample_locations GL_NV_sample_mask_override_coverage GL_NV_shader_atomic_counters GL_NV_shader_atomic_float GL_NV_shader_atomic_fp16_vector GL_NV_shader_atomic_int64 GL_NV_shader_buffer_load GL_NV_shader_storage_buffer_object GL_NV_shader_subgroup_partitioned GL_NV_texgen_reflection GL_NV_texture_barrier GL_NV_texture_compression_vtc GL_NV_texture_env_combine4 GL_NV_texture_multisample GL_NV_texture_rectangle GL_NV_texture_rectangle_compressed GL_NV_texture_shader GL_NV_texture_shader2 GL_NV_texture_shader3 GL_NV_transform_feedback GL_NV_transform_feedback2 GL_NV_uniform_buffer_unified_memory GL_NV_vertex_array_range GL_NV_vertex_array_range2 GL_NV_vertex_attrib_integer_64bit GL_NV_vertex_buffer_unified_memory GL_NV_vertex_program GL_NV_vertex_program1_1 GL_NV_vertex_program2 GL_NV_vertex_program2_option GL_NV_vertex_program3 GL_NV_viewport_array2 GL_NV_viewport_swizzle GL_NVX_conditional_render GL_NVX_linked_gpu_multicast GL_NV_gpu_multicast GL_NVX_gpu_multicast2 GL_NVX_progress_fence GL_NVX_gpu_memory_info GL_NVX_multigpu_info GL_NVX_nvenc_interop GL_NV_shader_thread_group GL_NV_shader_thread_shuffle GL_KHR_blend_equation_advanced GL_KHR_blend_equation_advanced_coherent GL_OVR_multiview GL_OVR_multiview2 GL_SGIS_generate_mipmap GL_SGIS_texture_lod GL_SGIX_depth_texture GL_SGIX_shadow GL_SUN_slice_accum GL_WIN_swap_hint WGL_EXT_swap_control 
GL_MAX_TEXTURE_SIZE: 16384
GL_MAX_ACTIVE_TEXTURES_ARB: 4

PIXELFORMAT: color(64-bits) Z(24-bit) stencil(0-bits)
MODE: -1, 3840 x 2160 fullscreen hz:N/A
GAMMA: hardware w/ 0 overbright bits
rendering primitives: single glDrawElements
texturemode: GL_LINEAR_MIPMAP_LINEAR
picmip: 0
texture bits: 0
lightmap texture bits: 0
multitexture: enabled
compiled vertex arrays: enabled
texenv add: enabled
compressed textures: enabled
compressed lightmaps: disabled
texture compression method: GL_EXT_texture_compression_s3tc
anisotropic filtering: enabled  (16.000000 of 16.000000)
Dynamic Glow: disabled
ARNING: Ignoring shader file shaders/atlantica.shader. Shader "####################" on line 0 missing opening brace(found "####################" on line 2)
ARNING: Ignoring shader file shaders/mantell.shader. Shader "####################" on line 0 missing opening brace(found "####################" on line 2)

------- sound initialization -------
------------------------------------
Initializing DirectSound
----- Sound Info -----
sound system is muted
    1 stereo
32768 samples
   16 samplebits
    1 submission_chunk
22050 speed
0x370e0050 dma buffer
No background file.
----------------------

--- ambient sound initialization ---
VM_CreateLegacy: uix86.dll
 succeeded
--- Common Initialization Complete ---
MSH_BROADCASTARGS: 49798
Winsock Initialized
Opening IP socket: localhost:29070
Hostname: Benoit-PC
IP: 192.168.0.127
Starting demo demo0013 with project sc006_03
Com_sprintf: Output length 8 too short, require 9 bytes.
Com_sprintf: Output length 8 too short, require 9 bytes.
Opened mmedemos/demo0013.mme, which has 31 seconds and 950 frames
ARNING: Ignoring shader file shaders/atlantica.shader. Shader "####################" on line 0 missing opening brace(found "####################" on line 2)
ARNING: Ignoring shader file shaders/mantell.shader. Shader "####################" on line 0 missing opening brace(found "####################" on line 2)
VM_CreateLegacy: uix86.dll
 succeeded
VM_CreateLegacy: cgamex86.dll
 succeeded

Lugormod od detected

ARNING: reused image gfx/hud/message_on with mixed glWrapClampMode parm
XML Warn Empty line for tag string in line 44
XML Warn Empty line for tag string in line 48
XML Warn Empty line for tag string in line 52
XML Warn Empty line for tag string in line 56
XML Warn Empty line for tag string in line 60
XML Warn Empty line for tag string in line 64
...loaded 1877 faces, 58 meshes, 134 trisurfs, 0 flares
execing mmedemos.cfg
couldn't exec mmelist.cfg
Capturing ended
Not recording a demo.
emo has failed to save
SetDeviceGammaRamp failed.
ARNING: Ignoring shader file shaders/atlantica.shader. Shader "####################" on line 0 missing opening brace(found "####################" on line 2)
ARNING: Ignoring shader file shaders/mantell.shader. Shader "####################" on line 0 missing opening brace(found "####################" on line 2)
glGetError() = 0x502
VM_CreateLegacy: uix86.dll
 succeeded
DISCONNECTED
Starting demo demo0014 with project sc006_04
Com_sprintf: Output length 8 too short, require 9 bytes.
Com_sprintf: Output length 8 too short, require 9 bytes.
Opened mmedemos/demo0014.mme, which has 23 seconds and 714 frames
SetDeviceGammaRamp failed.
ARNING: Ignoring shader file shaders/atlantica.shader. Shader "####################" on line 0 missing opening brace(found "####################" on line 2)
ARNING: Ignoring shader file shaders/mantell.shader. Shader "####################" on line 0 missing opening brace(found "####################" on line 2)
VM_CreateLegacy: uix86.dll
 succeeded
VM_CreateLegacy: cgamex86.dll
 succeeded

Lugormod od detected

ARNING: reused image gfx/hud/message_on with mixed glWrapClampMode parm
XML Warn Empty line for tag string in line 44
XML Warn Empty line for tag string in line 48
XML Warn Empty line for tag string in line 52
XML Warn Empty line for tag string in line 56
XML Warn Empty line for tag string in line 60
XML Warn Empty line for tag string in line 64
...loaded 1877 faces, 58 meshes, 134 trisurfs, 0 flares
execing mmedemos.cfg
couldn't exec mmelist.cfg
r roximity on the scanner... a small one-man ship, incoming fas-
r t just fired!
Capturing ended
Not recording a demo.
emo has failed to save
ARNING: Ignoring shader file shaders/atlantica.shader. Shader "####################" on line 0 missing opening brace(found "####################" on line 2)
ARNING: Ignoring shader file shaders/mantell.shader. Shader "####################" on line 0 missing opening brace(found "####################" on line 2)
glGetError() = 0x502
VM_CreateLegacy: uix86.dll
 failed!
recursive error after: Disconnected from server
 

The problem is recurring and also a note that might be of interest: this error will appear even if my demolist ONLY has 2 projects to run. It will capture both, then this window will pop up. 

I've tried changing workmegs from 128 to 512 but that didn't work (I don't even know what that does though). Could it be something in my jampconfig?

Share this post


Link to post

Something wrong with your log as well. Some words miss letters.

Does it fail with any length projects and does it work fine on default maps?

Share this post


Link to post

It will capture fine all project files that I've set. I've captured from 5 to 30 seconds clips (haven't tried longer clips) and it does work fine on default maps. 

But still, it will ONLY and ALWAYS capture 2 projects from the demolist at a time, then have the same error. 

I don't know if that's any use, but here's my current jampconfig:

Spoiler

// generated by Star Wars Jedi Academy MP, do not modify
unbindall
bind "SHIFT" "+seek"
bind "CTRL" "+movedown"
bind "ALT" "meditate"
bind "TAB" "+scores"
bind "ENTER" "+use"
bind "KP_HOME" "use_field"
bind "F1" "force_throw"
bind "F2" "force_pull"
bind "F3" "force_speed"
bind "F4" "force_seeing"
bind "SPACE" "+moveup"
bind "," "+moveleft"
bind "-" "weapon 10"
bind "." "+moveright"
bind "/" "cut it"
bind "0" "meditate"
bind "1" "edit camera"
bind "2" "edit chase"
bind "3" "edit line"
bind "4" "edit dof"
bind "5" "edit none"
bind "6" "weapon 6"
bind "7" "weapon 7"
bind "8" "weapon 8"
bind "9" "weapon 13"
bind "=" "weapon 0"
bind "A" "+moveleft"
bind "B" "edit del"
bind "C" "pause"
bind "D" "+moveright"
bind "E" "edit next"
bind "F" "edit target"
bind "G" "edit end"
bind "H" "screenshotdof radius0.15 521.979 0.15"
bind "I" "messagemode4"
bind "J" "screenshot"
bind "K" "engage_duel"
bind "L" "saberAttackCycle"
bind "M" "automap_toggle"
bind "N" "capture stop"
bind "O" "ui_opensiegemenu ingame_objectives"
bind "P" "cg_thirdperson !"
bind "Q" "edit prev"
bind "R" "edit lock"
bind "S" "+back"
bind "T" "edit start"
bind "U" "messagemode3"
bind "V" "edit add"
bind "W" "+forward"
bind "X" "view next"
bind "Y" "messagemode"
bind "Z" "view prev"
bind "[" "cut start"
bind "\" "force_forcepowerother"
bind "]" "cut end"
bind "`" "toggleconsole"
bind "~" "toggleconsole"
bind "DEL" "scoresDown"
bind "F5" "force_heal"
bind "F6" "force_protect"
bind "F7" "force_absorb"
bind "F8" "force_distract"
bind "MWHEELUP" "weapprev"
bind "MWHEELDOWN" "weapnext"
bind "MOUSE1" "+attack"
bind "MOUSE2" "+altattack"
bind "INS" "scoresUp"
bind "PGUP" "+lookup"
bind "F9" "+force_grip"
bind "F10" "+force_lightning"
bind "F11" "force_rage"
bind "F12" "+force_drain"
bind "END" "centerview"
bind "PGDN" "+lookdown"
bind "MOUSE3" "saberAttackCycle"
bind "UPARROW" "taunt"
bind "DOWNARROW" "+back"
bind "LEFTARROW" "+left"
bind "RIGHTARROW" "+right"
seta broadsword "0"
seta capturelimit "0"
seta cg_auraShell "1"
seta cg_autoswitch "1"
seta cg_bobPitch "0.002"
seta cg_bobRoll "0.002"
seta cg_bobUp "0.005"
seta cg_cameraOrbitDelay "50"
seta cg_centerTime "3"
seta cg_chatBox "10000"
seta cg_chatBoxHeight "350"
seta cg_commandSmooth "2"
seta cg_crosshairHealth "0"
seta cg_crosshairSize "24"
seta cg_crosshairX "0"
seta cg_crosshairY "0"
seta cg_currentSelectedPlayer "0"
seta cg_deferPlayers "0"
seta cg_dismember "0"
seta cg_draw2D "0"
seta cg_draw3DIcons "1"
seta cg_drawAmmoWarning "0"
seta cg_drawCrosshair "1"
seta cg_drawCrosshairNames "1"
seta cg_drawEnemyInfo "1"
seta cg_drawFPS "0"
seta cg_drawFriend "1"
seta cg_drawGun "1"
seta cg_drawIcons "1"
seta cg_drawMovementKeys "0"
seta cg_drawMovementKeysPos "320 240"
seta cg_drawMovementKeysScale "1.0"
seta cg_drawRadar "1"
seta cg_drawRewards "0"
seta cg_drawScores "1"
seta cg_drawSnapshot "0"
seta cg_drawSpeed "0"
seta cg_drawStatus "1"
seta cg_drawTeamOverlay "0"
seta cg_drawTimer "0"
seta cg_drawVehLeadIndicator "1"
seta cg_dynamicCrosshair "1"
seta cg_dynamicCrosshairPrecision "1"
seta cg_fallingBob "1"
seta cg_footsteps "3"
seta cg_forceAllyModel ""
seta cg_forceEnemyModel ""
seta cg_forceModel "0"
seta cg_fov "82"
seta cg_fovAspectAdjust "0"
seta cg_grappleFix "0"
seta cg_gunX "0"
seta cg_gunY "0"
seta cg_gunZ "0"
seta cg_hudFiles "ui/jahud.txt"
seta cg_japlusFix "1"
seta cg_jumpSounds "0"
seta cg_lagometer "0"
seta cg_marks "1"
seta cg_newFX "0"
seta cg_noPredict "0"
seta cg_noProjectileTrail "0"
seta cg_noTaunt "0"
seta cg_oldPainSounds "0"
seta cg_predictItems "1"
seta cg_renderToTextureFX "1"
seta cg_repeaterOrb "0"
seta cg_runPitch "0.002"
seta cg_runRoll "0.005"
seta cg_saberBladeCoreMulti "1"
seta cg_saberBladeGlowMulti "1.25"
seta cg_saberTrail "1"
seta cg_scorePlums "1"
seta cg_selectedPlayer "0"
seta cg_selectedPlayerName ""
seta cg_shadows "1"
seta cg_simpleItems "0"
seta cg_smoothCamera "0"
seta cg_smoothClients "0"
seta cg_snapshotTimeout "10"
seta cg_speedTrail "1"
seta cg_stereoSeparation "0.4"
seta cg_teamChatsOnly "0"
seta cg_thirdPerson "0"
seta cg_thirdPersonAngle "0"
seta cg_thirdPersonPitchOffset "0"
seta cg_thirdPersonRange "80"
seta cg_thirdPersonTargetDamp "0.5"
seta cg_thirdPersonVertOffset "16"
seta cg_trueEyePosition "-2"
seta cg_trueFlip "2"
seta cg_trueFOV "0"
seta cg_trueGuns "0"
seta cg_trueMelee "0"
seta cg_trueMoveRoll "0"
seta cg_trueRoll "2"
seta cg_trueSaber "0"
seta cg_trueSpin "1"
seta cg_UAGColours "1"
seta cg_viewsize "100"
seta cg_weaponBob "1"
seta char_color_blue "255"
seta char_color_green "255"
seta char_color_red "255"
seta cl_allowAltEnter "0"
seta cl_allowDownload "0"
seta cl_anglespeedkey "1.5"
seta cl_autoDemo "1"
seta cl_autoDemoFormat "%t_%m"
seta cl_autolodscale "1"
seta cl_dlURL ""
seta cl_drawRecording "1"
seta cl_freelook "1"
seta cl_maxpackets "100"
seta cl_maxPing "800"
seta cl_mouseAccel "0"
seta cl_packetdup "1"
seta cl_pitchspeed "140"
seta cl_renderer "rd-jamme"
seta cl_run "1"
seta cl_yawspeed "140"
seta cm_playerCurveClip "1"
seta color1 "1"
seta color2 "4"
seta com_affinity "0"
seta com_blood "1"
seta com_introplayed "0"
seta com_maxfps "125"
seta com_soundMegs "32"
seta con_notifytime "-1"
seta con_timestamps "0"
seta forcepowers "7-1-030003000030003333"
seta fx_countScale "1"
seta fx_disruptCoreColor "xff4400"
seta fx_disruptSpiral "0"
seta fx_disruptSpiralColor "xff2200"
seta fx_disruptTeamColour "0"
seta fx_disruptTime "-1"
seta fx_forcePhysics "13"
seta fx_nearCull "16"
seta fx_vfps "340"
seta fx_Vibrate "1"
seta g_siegeTeamSwitch "1"
seta g_spSkill "2"
seta g_warmup "20"
seta handicap "100"
seta in_joyBallScale "0.02"
seta in_joystick "0"
seta in_midi "0"
seta in_midichannel "1"
seta in_mididevice "0"
seta in_midiport "1"
seta in_mouse "-1"
seta joy_threshold "0.15"
seta joy_xbutton "1"
seta joy_ybutton "0"
seta mme_aviFormat "0"
seta mme_aviLimit "1"
seta mme_blurFrames "8"
seta mme_blurGamma "0"
seta mme_blurJitter "1"
seta mme_blurOverlap "0"
seta mme_blurStrength "0"
seta mme_blurType "gaussian"
seta mme_cpuSSE2 "0"
seta mme_demoAutoNext "1"
seta mme_demoAutoQuit "0"
seta mme_demoConvert "1"
seta mme_demoListQuit "1"
seta mme_demoPrecache "0"
seta mme_demoRemove "0"
seta mme_demoSmoothen "1"
seta mme_depthFocus "0"
seta mme_depthRange "0"
seta mme_dofFrames "8"
seta mme_dofRadius "1"
seta mme_jpegDownsampleChroma "0"
seta mme_jpegOptimizeHuffman "1"
seta mme_jpegQuality "90"
seta mme_pbo "1"
seta mme_pipeCommand "ffmpeg -f avi -i - -threads 0 -preset ultrafast -y -pix_fmt yuv420p -crf 23 %o.mp4 2> ffmpeglog.txt"
seta mme_pngCompression "5"
seta mme_renderHeight "2160"
seta mme_renderWidth "3840"
seta mme_saveDepth "0"
seta mme_saveOverwrite "0"
seta mme_saveShot "1"
seta mme_saveWav "2"
seta mme_screenShotAlpha "0"
seta mme_screenShotFormat "pipe"
seta mme_screenShotGamma "0"
seta mme_skykey "0"
seta mme_tgaCompression "1"
seta mme_workMegs "512"
seta model "carth/default"
seta mov_absorbColour "0"
seta mov_absorbShader "0"
seta mov_absorbVisibility "0"
seta mov_captureCamera "0"
seta mov_capturecvars "mov_capturename mov_capturefps mme_blurframes mme_blurType cg_fov mme_dofframes mov_headturn fx_vibrate fx_vfps mov_smoothquat"
seta mov_captureFPS "60"
seta mov_captureName "sc021_03"
seta mov_chaseRange "20"
seta mov_chatBeep "0"
seta mov_deltaPitch "0"
seta mov_deltaRoll "0"
seta mov_deltaYaw "0"
seta mov_duelIsolation "0"
seta mov_duelShell "0"
seta mov_filterMask "0"
seta mov_fpForceShader "0"
seta mov_fragsOnly "0"
seta mov_headTurn "0"
seta mov_protectColour "0"
seta mov_rageColour "0"
seta mov_ratioFix "1"
seta mov_saberTeamColour "1"
seta mov_seekInterval "1"
seta mov_simpleFlags "0"
seta mov_smoothQuat "0"
seta mov_soundDisable "0"
seta mov_spLightning "1"
seta m_filter "0"
seta m_forward "0.25"
seta m_pitch "0.022"
seta m_pitchVeh "0.022"
seta m_side "0.25"
seta m_yaw "0.022"
seta name ""
seta net_forcenonlocal "0"
seta net_noipx "1"
seta net_noudp "0"
seta net_socksEnabled "0"
seta net_socksPassword ""
seta net_socksPort "1080"
seta net_socksServer ""
seta net_socksUsername ""
seta rate "25000"
seta RMG_map "small"
seta RMG_terrain "grassyhills"
seta RMG_textseed "0"
seta RMG_timefile "day"
seta r_allowExtensions "1"
seta r_anisotropy "0"
seta r_autoMap "0"
seta r_autoMapH "128"
seta r_autoMapW "128"
seta r_autoMapX "496"
seta r_autoMapY "32"
seta r_backEndMegs "2"
seta r_bloom "0"
seta r_bloom_alpha "0.3"
seta r_bloom_darken "4"
seta r_bloom_diamond_size "8"
seta r_bloom_fast_sample "0"
seta r_bloom_intensity "1.3"
seta r_bloom_sample_size "128"
seta r_centerWindow "0"
seta r_colorbits "0"
seta r_customheight "1080"
seta r_customwidth "1920"
seta r_depthbits "0"
seta r_detailtextures "1"
seta r_dlightStyle "1"
seta r_drawSun "0"
seta r_DynamicGlow "0"
seta r_DynamicGlowDelta "0.8f"
seta r_DynamicGlowHeight "240"
seta r_DynamicGlowIntensity "1.13f"
seta r_DynamicGlowPasses "5"
seta r_DynamicGlowSoft "1"
seta r_DynamicGlowWidth "320"
seta r_dynamiclight "1"
seta r_environmentMapping "1"
seta r_ext_compiled_vertex_array "1"
seta r_ext_compress_lightmaps "0"
seta r_ext_compress_textures "1"
seta r_ext_gamma_control "1"
seta r_ext_multisample "0"
seta r_ext_multitexture "1"
seta r_ext_preferred_tc_method "0"
seta r_ext_texture_env_add "1"
seta r_ext_texture_filter_anisotropic "16"
seta r_facePlaneCull "1"
seta r_fastsky "0"
seta r_fbo "0"
seta r_fboBlur "0"
seta r_fboHeight "0"
seta r_fboMultiSample "0"
seta r_fboWidth "0"
seta r_finish "0"
seta r_flares "1"
seta r_fullscreen "1"
seta r_gamma "1"
seta r_ignoreGLErrors "1"
seta r_ignorehwgamma "0"
seta r_inGameVideo "1"
seta r_lastValidRenderer "GeForce GTX 960/PCIe/SSE2"
seta r_lodbias "0"
seta r_lodCurveError "250"
seta r_mapOverBrightBits "0"
seta r_markcount "100"
seta r_mode "-1"
seta r_modelpoolmegs "0"
seta r_multisample "0"
seta r_multisampleNvidia "0"
seta r_noborder "0"
seta r_overBrightBits "0"
seta r_picmip "0"
seta r_primitives "0"
seta r_simpleMipMaps "1"
seta r_stencilbits "8"
seta r_stereo "0"
seta r_stereoSeparation "0"
seta r_subdivisions "4"
seta r_swapInterval "0"
seta r_texturebits "0"
seta r_texturebitslm "0"
seta r_textureMode "GL_LINEAR_MIPMAP_LINEAR"
seta r_vertexLight "0"
seta r_znear "1"
seta r_zproj "107"
seta saber1 "dual_3"
seta saber2 "none"
seta sensitivity "5"
seta sex "male"
seta se_language "english"
seta snaps "40"
seta sv_filterCommands "0"
seta sv_floodProtect "1"
seta sv_hostname "*Jedi*"
seta sv_lanForceRate "1"
seta sv_master2 ""
seta sv_master3 ""
seta sv_master4 ""
seta sv_master5 ""
seta sv_maxPing "0"
seta sv_maxRate "0"
seta sv_minPing "0"
seta sv_snapsMax "40"
seta sv_snapsMin "10"
seta s_allowDynamicMusic "1"
seta s_attenuate "1.0"
seta s_doppler "1"
seta s_dopplerFactor "1"
seta s_dopplerSpeed "4000"
seta s_effects "1"
seta s_khz "22"
seta s_language "english"
seta s_mixahead "0.2"
seta s_mixPreStep "0.05"
seta s_mixSame "2"
seta s_mixSameTime "10"
seta s_mp3overhead "31756"
seta s_musicvolume "0.000000"
seta s_separation "0.5"
seta s_soundpoolmegs "25"
seta s_timescale "1"
seta s_UseOpenAL "0"
seta s_volume "1.000000"
seta s_volumeVoice "0.000000"
seta ui_actualNetGametype "0"
seta ui_blueteam "Rebellion"
seta ui_blueteam1 "1"
seta ui_blueteam2 "1"
seta ui_blueteam3 "1"
seta ui_blueteam4 "1"
seta ui_blueteam5 "1"
seta ui_blueteam6 "1"
seta ui_blueteam7 "1"
seta ui_blueteam8 "1"
seta ui_browserGameType "0"
seta ui_browserMaster "0"
seta ui_browserShowEmpty "1"
seta ui_browserShowFull "1"
seta ui_browserSortKey "4"
seta ui_ctf_capturelimit "8"
seta ui_ctf_friendly "0"
seta ui_ctf_timelimit "30"
seta ui_currentMap "0"
seta ui_currentNetMap "0"
seta ui_currentOpponent "0"
seta ui_dedicated "0"
seta ui_ffa_fraglimit "20"
seta ui_ffa_timelimit "0"
seta ui_findPlayer "!!"
seta ui_forcePowerDisable "0"
seta ui_freeSaber "0"
seta ui_gametype "0"
seta ui_joinGametype "0"
seta ui_lastServerRefresh_0 "Sep-13, 2019 @ 22:20"
seta ui_lastServerRefresh_1 "Sep-13, 2019 @ 1: 9"
seta ui_lastServerRefresh_2 "Sep-13, 2019 @ 22:20"
seta ui_lastServerRefresh_3 ""
seta ui_mapIndex "0"
seta ui_menuFilesMP "ui/jampmenus.txt"
seta ui_netGametype "0"
seta ui_netSource "0"
seta ui_opponentName "Rebellion"
seta ui_PrecacheModels "0"
seta ui_rankChange "0"
seta ui_recordSPDemo "0"
seta ui_redteam "Empire"
seta ui_redteam1 "1"
seta ui_redteam2 "1"
seta ui_redteam3 "1"
seta ui_redteam4 "1"
seta ui_redteam5 "1"
seta ui_redteam6 "1"
seta ui_redteam7 "1"
seta ui_redteam8 "1"
seta ui_r_glCustom "4"
seta ui_scoreAccuracy "0%"
seta ui_scoreAssists "0"
seta ui_scoreBase "0"
seta ui_scoreCaptures "0"
seta ui_scoreDefends "0"
seta ui_scoreExcellents "0"
seta ui_scoreGauntlets "0"
seta ui_scoreImpressives "0"
seta ui_scorePerfect "0"
seta ui_scoreScore "0"
seta ui_scoreShutoutBonus "0"
seta ui_scoreSkillBonus "0"
seta ui_scoreTeam "0 to 0"
seta ui_scoreTime "00:00"
seta ui_scoreTimeBonus "0"
seta ui_selectedModelIndex "30"
seta ui_serverStatusTimeOut "7000"
seta ui_team_fraglimit "0"
seta ui_team_friendly "1"
seta ui_team_timelimit "20"
seta vid_xpos "-9"
seta vid_ypos "0"
seta vm_cgame "0"
seta vm_game "0"
seta vm_ui "0"
seta xin_invertLookX "0"
seta xin_invertLookY "0"
seta xin_invertThumbsticks "0"
seta xin_rumbleScale "1.0"
 

And here is my ffmpeg log:

Spoiler

ffmpeg version 4.2.1 Copyright (c) 2000-2019 the FFmpeg developers
  built with gcc 9.1.1 (GCC) 20190807
  configuration: --enable-gpl --enable-version3 --enable-sdl2 --enable-fontconfig --enable-gnutls --enable-iconv --enable-libass --enable-libdav1d --enable-libbluray --enable-libfreetype --enable-libmp3lame --enable-libopencore-amrnb --enable-libopencore-amrwb --enable-libopenjpeg --enable-libopus --enable-libshine --enable-libsnappy --enable-libsoxr --enable-libtheora --enable-libtwolame --enable-libvpx --enable-libwavpack --enable-libwebp --enable-libx264 --enable-libx265 --enable-libxml2 --enable-libzimg --enable-lzma --enable-zlib --enable-gmp --enable-libvidstab --enable-libvorbis --enable-libvo-amrwbenc --enable-libmysofa --enable-libspeex --enable-libxvid --enable-libaom --enable-libmfx --enable-amf --enable-ffnvcodec --enable-cuvid --enable-d3d11va --enable-nvenc --enable-nvdec --enable-dxva2 --enable-avisynth --enable-libopenmpt
  libavutil      56. 31.100 / 56. 31.100
  libavcodec     58. 54.100 / 58. 54.100
  libavformat    58. 29.100 / 58. 29.100
  libavdevice    58.  8.100 / 58.  8.100
  libavfilter     7. 57.100 /  7. 57.100
  libswscale      5.  5.100 /  5.  5.100
  libswresample   3.  5.100 /  3.  5.100
  libpostproc    55.  5.100 / 55.  5.100
[avi @ 00000255ef609700] Stream #0: not enough frames to estimate rate; consider increasing probesize
Guessed Channel Layout for Input Stream #0.1 : stereo
Input #0, avi, from 'pipe:':
  Duration: N/A, start: 0.000000, bitrate: N/A
    Stream #0:0: Video: rawvideo, bgr24, 3840x2160, 60 fps, 60 tbr, 60 tbn, 60 tbc
    Stream #0:1: Audio: pcm_s16le ([1][0][0][0] / 0x0001), 44100 Hz, stereo, s16, 1411 kb/s
Stream mapping:
  Stream #0:0 -> #0:0 (rawvideo (native) -> h264 (libx264))
  Stream #0:1 -> #0:1 (pcm_s16le (native) -> aac (native))
[libx264 @ 00000255ef60b540] using cpu capabilities: MMX2 SSE2Fast LZCNT
[libx264 @ 00000255ef60b540] profile Constrained Baseline, level 5.2, 4:2:0, 8-bit
[libx264 @ 00000255ef60b540] 264 - core 158 r2984 3759fcb - H.264/MPEG-4 AVC codec - Copyleft 2003-2019 - http://www.videolan.org/x264.html - options: cabac=0 ref=1 deblock=0:0:0 analyse=0:0 me=dia subme=0 psy=1 psy_rd=1.00:0.00 mixed_ref=0 me_range=16 chroma_me=1 trellis=0 8x8dct=0 cqm=0 deadzone=21,11 fast_pskip=1 chroma_qp_offset=0 threads=9 lookahead_threads=1 sliced_threads=0 nr=0 decimate=1 interlaced=0 bluray_compat=0 constrained_intra=0 bframes=0 weightp=0 keyint=250 keyint_min=25 scenecut=0 intra_refresh=0 rc=crf mbtree=0 crf=23.0 qcomp=0.60 qpmin=0 qpmax=69 qpstep=4 ip_ratio=1.40 aq=0
Output #0, mp4, to 'mme\capture\demo0028\sc021_03.mp4':
  Metadata:
    encoder         : Lavf58.29.100
    Stream #0:0: Video: h264 (libx264) (avc1 / 0x31637661), yuv420p(progressive), 3840x2160, q=-1--1, 60 fps, 15360 tbn, 60 tbc
    Metadata:
      encoder         : Lavc58.54.100 libx264
    Side data:
      cpb: bitrate max/min/avg: 0/0/0 buffer size: 0 vbv_delay: -1
    Stream #0:1: Audio: aac (LC) (mp4a / 0x6134706D), 44100 Hz, stereo, fltp, 128 kb/s
    Metadata:
      encoder         : Lavc58.54.100 aac
frame=    2 fps=0.5 q=0.0 size=       0kB time=00:00:00.00 bitrate=N/A speed=   0x     frame=    4 fps=0.5 q=0.0 size=       0kB time=00:00:00.00 bitrate=N/A speed=   0x     frame=    4 fps=0.4 q=0.0 size=       0kB time=00:00:00.00 bitrate=N/A speed=   0x     frame=    6 fps=0.4 q=0.0 size=       0kB time=00:00:00.02 bitrate=  16.5kbits/s speed=0.00156x     frame=    7 fps=0.4 q=0.0 size=       0kB time=00:00:00.04 bitrate=   8.3kbits/s speed=0.00247x     frame=    8 fps=0.4 q=0.0 size=       0kB time=00:00:00.04 bitrate=   8.3kbits/s speed=0.00204x     frame=    8 fps=0.3 q=0.0 size=       0kB time=00:00:00.06 bitrate=   5.5kbits/s speed=0.0026x     frame=   10 fps=0.3 q=0.0 size=       0kB time=00:00:00.09 bitrate=   4.1kbits/s speed=0.00303x     frame=   11 fps=0.3 q=18.0 size=     256kB time=00:00:00.11 bitrate=18066.6kbits/s speed=0.00337x     frame=   11 fps=0.3 q=18.0 size=     256kB time=00:00:00.11 bitrate=18066.6kbits/s speed=0.00304x     frame=   13 fps=0.3 q=18.0 size=     256kB time=00:00:00.13 bitrate=15055.5kbits/s speed=0.00331x     frame=   14 fps=0.3 q=18.0 size=     256kB time=00:00:00.16 bitrate=12904.7kbits/s speed=0.00353x     frame=   15 fps=0.3 q=18.0 size=     256kB time=00:00:00.16 bitrate=12904.7kbits/s speed=0.00327x     frame=   15 fps=0.3 q=18.0 size=     256kB time=00:00:00.18 bitrate=11291.6kbits/s speed=0.00341x     frame=   17 fps=0.3 q=18.0 size=     256kB time=00:00:00.20 bitrate=10037.0kbits/s speed=0.00359x     frame=   18 fps=0.3 q=18.0 size=     256kB time=00:00:00.23 bitrate=9033.3kbits/s speed=0.00373x     frame=   18 fps=0.3 q=18.0 size=     256kB time=00:00:00.23 bitrate=9033.3kbits/s speed=0.00351x     frame=   20 fps=0.3 q=18.0 size=     256kB time=00:00:00.25 bitrate=8212.1kbits/s speed=0.00364x     frame=   21 fps=0.3 q=18.0 size=     256kB time=00:00:00.27 bitrate=7527.8kbits/s speed=0.00377x     frame=   22 fps=0.3 q=18.0 size=     256kB time=00:00:00.27 bitrate=7527.8kbits/s speed=0.00359x     frame=   22 fps=0.3 q=18.0 size=     256kB time=00:00:00.30 bitrate=6948.7kbits/s speed=0.00371x     frame=   24 fps=0.3 q=18.0 size=     256kB time=00:00:00.32 bitrate=6452.4kbits/s speed=0.00382x     frame=   25 fps=0.3 q=18.0 size=     512kB time=00:00:00.34 bitrate=12043.4kbits/s speed=0.00393x     frame=   26 fps=0.3 q=18.0 size=     512kB time=00:00:00.34 bitrate=12043.4kbits/s speed=0.00377x     frame=   26 fps=0.3 q=18.0 size=     512kB time=00:00:00.37 bitrate=11290.6kbits/s speed=0.00387x     frame=   28 fps=0.3 q=18.0 size=     512kB time=00:00:00.39 bitrate=10626.5kbits/s speed=0.00396x     frame=   29 fps=0.3 q=18.0 size=     512kB time=00:00:00.41 bitrate=10036.1kbits/s speed=0.00404x     frame=   29 fps=0.3 q=18.0 size=     512kB time=00:00:00.41 bitrate=10036.1kbits/s speed=0.00391x     frame=   31 fps=0.3 q=18.0 size=     512kB time=00:00:00.44 bitrate=9507.9kbits/s speed=0.00399x     frame=   32 fps=0.3 q=18.0 size=     512kB time=00:00:00.46 bitrate=9032.5kbits/s speed=0.00405x     frame=   33 fps=0.3 q=18.0 size=     512kB time=00:00:00.46 bitrate=9032.5kbits/s speed=0.00393x     frame=   33 fps=0.3 q=18.0 size=     512kB time=00:00:00.48 bitrate=8602.4kbits/s speed=0.004x     frame=   35 fps=0.3 q=18.0 size=     512kB time=00:00:00.51 bitrate=8211.4kbits/s speed=0.00407x     frame=   36 fps=0.3 q=18.0 size=     512kB time=00:00:00.53 bitrate=7854.4kbits/s speed=0.00413x     frame=   36 fps=0.3 q=18.0 size=     512kB time=00:00:00.53 bitrate=7854.4kbits/s speed=0.00402x     frame=   38 fps=0.3 q=18.0 size=     512kB time=00:00:00.55 bitrate=7527.1kbits/s speed=0.00408x     frame=   39 fps=0.3 q=18.0 size=     512kB time=00:00:00.58 bitrate=7226.0kbits/s speed=0.00414x     frame=   40 fps=0.3 q=18.0 size=     512kB time=00:00:00.58 bitrate=7226.0kbits/s speed=0.00403x     frame=   40 fps=0.3 q=18.0 size=     512kB time=00:00:00.60 bitrate=6948.1kbits/s speed=0.00409x     frame=   42 fps=0.3 q=18.0 size=     768kB time=00:00:00.62 bitrate=10035.8kbits/s speed=0.00414x     frame=   43 fps=0.3 q=18.0 size=     768kB time=00:00:00.65 bitrate=9677.4kbits/s speed=0.00419x     frame=   44 fps=0.3 q=18.0 size=     768kB time=00:00:00.65 bitrate=9677.4kbits/s speed=0.0041x     frame=   44 fps=0.3 q=18.0 size=     768kB time=00:00:00.67 bitrate=9343.7kbits/s speed=0.00415x     frame=   46 fps=0.3 q=18.0 size=     768kB time=00:00:00.69 bitrate=9032.2kbits/s speed=0.0042x     frame=   47 fps=0.3 q=18.0 size=     768kB time=00:00:00.69 bitrate=9032.2kbits/s speed=0.00411x     frame=   47 fps=0.3 q=18.0 size=     768kB time=00:00:00.71 bitrate=8740.9kbits/s speed=0.00415x     frame=   49 fps=0.3 q=18.0 size=     768kB time=00:00:00.74 bitrate=8467.7kbits/s speed=0.0042x     frame=   50 fps=0.3 q=18.0 size=     768kB time=00:00:00.76 bitrate=8211.1kbits/s speed=0.00424x     frame=   51 fps=0.3 q=18.0 size=     768kB time=00:00:00.76 bitrate=8211.1kbits/s speed=0.00416x     frame=   51 fps=0.3 q=18.0 size=     768kB time=00:00:00.78 bitrate=7969.6kbits/s speed=0.0042x     frame=   53 fps=0.3 q=18.0 size=     768kB time=00:00:00.81 bitrate=7741.9kbits/s speed=0.00423x     frame=   54 fps=0.3 q=18.0 size=     768kB time=00:00:00.81 bitrate=7741.9kbits/s speed=0.00415x     frame=   54 fps=0.3 q=18.0 size=     768kB time=00:00:00.83 bitrate=7526.9kbits/s speed=0.00419x     frame=   56 fps=0.3 q=18.0 size=     768kB time=00:00:00.85 bitrate=7323.4kbits/s speed=0.00423x     frame=   57 fps=0.3 q=18.0 size=     768kB time=00:00:00.88 bitrate=7130.7kbits/s speed=0.00427x     frame=   58 fps=0.3 q=18.0 size=    1024kB time=00:00:00.88 bitrate=9507.5kbits/s speed=0.00419x     frame=   58 fps=0.3 q=18.0 size=    1024kB time=00:00:00.90 bitrate=9263.7kbits/s speed=0.00423x     frame=   60 fps=0.3 q=18.0 size=    1024kB time=00:00:00.92 bitrate=9032.1kbits/s speed=0.00426x     frame=   61 fps=0.3 q=18.0 size=    1024kB time=00:00:00.92 bitrate=9032.1kbits/s speed=0.00419x     frame=   62 fps=0.3 q=18.0 size=    1024kB time=00:00:00.95 bitrate=8811.8kbits/s speed=0.00422x     frame=   62 fps=0.3 q=18.0 size=    1024kB time=00:00:00.97 bitrate=8602.0kbits/s speed=0.00426x     frame=   64 fps=0.3 q=18.0 size=    1024kB time=00:00:00.99 bitrate=8401.9kbits/s speed=0.00429x     frame=   65 fps=0.3 q=18.0 size=    1024kB time=00:00:00.99 bitrate=8401.9kbits/s speed=0.00422x     frame=   65 fps=0.3 q=18.0 size=    1024kB time=00:00:01.02 bitrate=8211.0kbits/s speed=0.00425x     frame=   67 fps=0.3 q=18.0 size=    1024kB time=00:00:01.04 bitrate=8028.5kbits/s speed=0.00428x     frame=   68 fps=0.3 q=18.0 size=    1024kB time=00:00:01.06 bitrate=7854.0kbits/s speed=0.00431x     frame=   69 fps=0.3 q=18.0 size=    1024kB time=00:00:01.06 bitrate=7854.0kbits/s speed=0.00425x     frame=   69 fps=0.3 q=18.0 size=    1024kB time=00:00:01.09 bitrate=7686.9kbits/s speed=0.00428x     frame=   71 fps=0.3 q=17.0 size=    1024kB time=00:00:01.11 bitrate=7526.7kbits/s speed=0.00431x     frame=   72 fps=0.3 q=17.0 size=    1024kB time=00:00:01.11 bitrate=7526.7kbits/s speed=0.00425x     frame=   72 fps=0.3 q=17.0 size=    1024kB time=00:00:01.13 bitrate=7373.1kbits/s speed=0.00427x     frame=   74 fps=0.3 q=17.0 size=    1024kB time=00:00:01.16 bitrate=7225.7kbits/s speed=0.0043x     frame=   75 fps=0.3 q=17.0 size=    1024kB time=00:00:01.18 bitrate=7084.0kbits/s speed=0.00433x     frame=   76 fps=0.3 q=17.0 size=    1024kB time=00:00:01.18 bitrate=7084.0kbits/s speed=0.00427x     frame=   76 fps=0.3 q=17.0 size=    1024kB time=00:00:01.20 bitrate=6947.8kbits/s speed=0.0043x     frame=   78 fps=0.3 q=16.0 size=    1024kB time=00:00:01.23 bitrate=6816.7kbits/s speed=0.00432x     frame=   79 fps=0.3 q=16.0 size=    1280kB time=00:00:01.23 bitrate=8520.8kbits/s speed=0.00427x     frame=   80 fps=0.3 q=16.0 size=    1280kB time=00:00:01.25 bitrate=8363.0kbits/s speed=0.00429x     frame=   80 fps=0.3 q=16.0 size=    1280kB time=00:00:01.27 bitrate=8210.9kbits/s speed=0.00432x     frame=   82 fps=0.3 q=16.0 size=    1280kB time=00:00:01.30 bitrate=8064.3kbits/s speed=0.00434x     frame=   83 fps=0.3 q=16.0 size=    1280kB time=00:00:01.30 bitrate=8064.3kbits/s speed=0.00429x     frame=   83 fps=0.3 q=16.0 size=    1280kB time=00:00:01.32 bitrate=7922.8kbits/s speed=0.00431x     frame=   85 fps=0.3 q=16.0 size=    1280kB time=00:00:01.34 bitrate=7786.2kbits/s speed=0.00433x     frame=   86 fps=0.3 q=16.0 size=    1280kB time=00:00:01.34 bitrate=7786.2kbits/s speed=0.00428x     frame=   87 fps=0.3 q=16.0 size=    1280kB time=00:00:01.36 bitrate=7654.2kbits/s speed=0.00431x     frame=   87 fps=0.3 q=16.0 size=    1280kB time=00:00:01.39 bitrate=7526.7kbits/s speed=0.00433x     frame=   89 fps=0.3 q=16.0 size=    1280kB time=00:00:01.41 bitrate=7403.3kbits/s speed=0.00435x     frame=   90 fps=0.3 q=16.0 size=    1280kB time=00:00:01.41 bitrate=7403.3kbits/s speed=0.0043x     frame=   90 fps=0.3 q=16.0 size=    1280kB time=00:00:01.43 bitrate=7283.9kbits/s speed=0.00432x     frame=   92 fps=0.3 q=16.0 size=    1280kB time=00:00:01.46 bitrate=7168.3kbits/s speed=0.00434x     frame=   93 fps=0.3 q=16.0 size=    1280kB time=00:00:01.46 bitrate=7168.3kbits/s speed=0.00429x     frame=   94 fps=0.3 q=16.0 size=    1280kB time=00:00:01.48 bitrate=7056.3kbits/s speed=0.00431x     frame=   94 fps=0.3 q=16.0 size=    1280kB time=00:00:01.50 bitrate=6947.7kbits/s speed=0.00433x     frame=   96 fps=0.3 q=16.0 size=    1280kB time=00:00:01.53 bitrate=6842.4kbits/s speed=0.00435x     frame=   97 fps=0.3 q=16.0 size=    1280kB time=00:00:01.53 bitrate=6842.4kbits/s speed=0.00431x     frame=   97 fps=0.3 q=16.0 size=    1280kB time=00:00:01.55 bitrate=6740.3kbits/s speed=0.00433x     frame=   99 fps=0.3 q=16.0 size=    1280kB time=00:00:01.57 bitrate=6641.2kbits/s speed=0.00435x     frame=  100 fps=0.3 q=16.0 size=    1280kB time=00:00:01.57 bitrate=6641.2kbits/s speed=0.0043x     frame=  101 fps=0.3 q=16.0 size=    1280kB time=00:00:01.60 bitrate=6544.9kbits/s speed=0.00432x     frame=  101 fps=0.3 q=16.0 size=    1280kB time=00:00:01.62 bitrate=6451.4kbits/s speed=0.00434x     frame=  103 fps=0.3 q=16.0 size=    1280kB time=00:00:01.64 bitrate=6360.6kbits/s speed=0.00436x     frame=  104 fps=0.3 q=16.0 size=    1280kB time=00:00:01.64 bitrate=6360.6kbits/s speed=0.00431x     frame=  105 fps=0.3 q=16.0 size=    1280kB time=00:00:01.67 bitrate=6272.2kbits/s speed=0.00433x     frame=  105 fps=0.3 q=16.0 size=    1280kB time=00:00:01.69 bitrate=6186.3kbits/s speed=0.00434x     frame=  107 fps=0.3 q=16.0 size=    1280kB time=00:00:01.69 bitrate=6186.3kbits/s speed=0.0043x     frame=  108 fps=0.3 q=16.0 size=    1280kB time=00:00:01.71 bitrate=6102.7kbits/s speed=0.00432x     frame=  108 fps=0.3 q=16.0 size=    1280kB time=00:00:01.74 bitrate=6021.3kbits/s speed=0.00434x     frame=  110 fps=0.3 q=16.0 size=    1280kB time=00:00:01.76 bitrate=5942.1kbits/s speed=0.00436x     frame=  111 fps=0.3 q=17.0 size=    1280kB time=00:00:01.76 bitrate=5942.1kbits/s speed=0.00432x     frame=  112 fps=0.3 q=19.0 size=    1280kB time=00:00:01.78 bitrate=5864.9kbits/s speed=0.00433x     frame=  112 fps=0.3 q=19.0 size=    1280kB time=00:00:01.81 bitrate=5789.8kbits/s speed=0.00435x     frame=  114 fps=0.3 q=20.0 size=    1280kB time=00:00:01.83 bitrate=5716.5kbits/s speed=0.00437x     frame=  115 fps=0.3 q=20.0 size=    1280kB time=00:00:01.83 bitrate=5716.5kbits/s speed=0.00433x     frame=  115 fps=0.3 q=20.0 size=    1280kB time=00:00:01.85 bitrate=5645.0kbits/s speed=0.00435x     frame=  117 fps=0.3 q=20.0 size=    1280kB time=00:00:01.88 bitrate=5575.3kbits/s speed=0.00436x     frame=  118 fps=0.3 q=20.0 size=    1280kB time=00:00:01.88 bitrate=5575.3kbits/s speed=0.00432x     frame=  119 fps=0.3 q=20.0 size=    1536kB time=00:00:01.90 bitrate=6608.7kbits/s speed=0.00434x     frame=  119 fps=0.3 q=20.0 size=    1536kB time=00:00:01.92 bitrate=6529.1kbits/s speed=0.00436x     frame=  121 fps=0.3 q=20.0 size=    1536kB time=00:00:01.95 bitrate=6451.4kbits/s speed=0.00437x     frame=  122 fps=0.3 q=20.0 size=    1536kB time=00:00:01.95 bitrate=6451.4kbits/s speed=0.00433x     frame=  123 fps=0.3 q=20.0 size=    1536kB time=00:00:01.97 bitrate=6375.5kbits/s speed=0.00435x     frame=  123 fps=0.3 q=20.0 size=    1536kB time=00:00:01.99 bitrate=6301.4kbits/s speed=0.00436x     frame=  125 fps=0.3 q=20.0 size=    1536kB time=00:00:01.99 bitrate=6301.4kbits/s speed=0.00433x     frame=  126 fps=0.3 q=19.0 size=    1536kB time=00:00:02.02 bitrate=6228.9kbits/s speed=0.00434x     frame=  126 fps=0.3 q=19.0 size=    1536kB time=00:00:02.04 bitrate=6158.2kbits/s speed=0.00436x     frame=  128 fps=0.3 q=20.0 size=    1536kB time=00:00:02.06 bitrate=6089.0kbits/s speed=0.00437x     frame=  129 fps=0.3 q=19.0 size=    1792kB time=00:00:02.06 bitrate=7103.8kbits/s speed=0.00434x     frame=  130 fps=0.3 q=19.0 size=    1792kB time=00:00:02.08 bitrate=7024.8kbits/s speed=0.00435x     frame=  130 fps=0.3 q=19.0 size=    1792kB time=00:00:02.11 bitrate=6947.6kbits/s speed=0.00437x     frame=  132 fps=0.3 q=19.0 size=    1792kB time=00:00:02.11 bitrate=6947.6kbits/s speed=0.00434x     frame=  133 fps=0.3 q=19.0 size=    1792kB time=00:00:02.13 bitrate=6872.1kbits/s speed=0.00435x     frame=  133 fps=0.3 q=19.0 size=    1792kB time=00:00:02.15 bitrate=6798.2kbits/s speed=0.00436x     frame=  135 fps=0.3 q=20.0 size=    1792kB time=00:00:02.18 bitrate=6725.9kbits/s speed=0.00438x     frame=  136 fps=0.3 q=20.0 size=    1792kB time=00:00:02.18 bitrate=6725.9kbits/s speed=0.00435x     frame=  137 fps=0.3 q=20.0 size=    2048kB time=00:00:02.20 bitrate=7605.8kbits/s speed=0.00436x     frame=  137 fps=0.3 q=20.0 size=    2048kB time=00:00:02.22 bitrate=7526.6kbits/s speed=0.00437x     frame=  139 fps=0.3 q=19.0 size=    2048kB time=00:00:02.22 bitrate=7526.6kbits/s speed=0.00434x     frame=  140 fps=0.3 q=19.0 size=    2048kB time=00:00:02.25 bitrate=7449.0kbits/s speed=0.00436x     frame=  141 fps=0.3 q=19.0 size=    2048kB time=00:00:02.27 bitrate=7373.0kbits/s speed=0.00437x     frame=  141 fps=0.3 q=19.0 size=    2048kB time=00:00:02.29 bitrate=7298.5kbits/s speed=0.00438x     frame=  143 fps=0.3 q=19.0 size=    2048kB time=00:00:02.29 bitrate=7298.5kbits/s speed=0.00435x     frame=  144 fps=0.3 q=19.0 size=    2048kB time=00:00:02.32 bitrate=7225.5kbits/s speed=0.00437x     frame=  144 fps=0.3 q=19.0 size=    2048kB time=00:00:02.34 bitrate=7154.0kbits/s speed=0.00438x     frame=  146 fps=0.3 q=19.0 size=    2304kB time=00:00:02.34 bitrate=8048.2kbits/s speed=0.00435x     frame=  147 fps=0.3 q=18.0 size=    2304kB time=00:00:02.36 bitrate=7969.3kbits/s speed=0.00436x     frame=  148 fps=0.3 q=18.0 size=    2304kB time=00:00:02.39 bitrate=7891.9kbits/s speed=0.00437x     frame=  148 fps=0.3 q=18.0 size=    2304kB time=00:00:02.41 bitrate=7816.0kbits/s speed=0.00439x     frame=  150 fps=0.3 q=18.0 size=    2304kB time=00:00:02.41 bitrate=7816.0kbits/s speed=0.00436x     frame=  151 fps=0.3 q=18.0 size=    2304kB time=00:00:02.43 bitrate=7741.6kbits/s speed=0.00437x     frame=  151 fps=0.3 q=18.0 size=    2304kB time=00:00:02.46 bitrate=7668.6kbits/s speed=0.00438x     frame=  153 fps=0.3 q=18.0 size=    2304kB time=00:00:02.48 bitrate=7596.9kbits/s speed=0.00439x     frame=  154 fps=0.3 q=18.0 size=    2304kB time=00:00:02.48 bitrate=7596.9kbits/s speed=0.00437x     frame=  155 fps=0.3 q=18.0 size=    2304kB time=00:00:02.50 bitrate=7526.6kbits/s speed=0.00438x     frame=  155 fps=0.3 q=18.0 size=    2304kB time=00:00:02.53 bitrate=7457.5kbits/s speed=0.00439x     frame=  157 fps=0.3 q=18.0 size=    2304kB time=00:00:02.53 bitrate=7457.5kbits/s speed=0.00436x     frame=  158 fps=0.3 q=19.0 size=    2304kB time=00:00:02.55 bitrate=7389.7kbits/s speed=0.00438x     frame=  159 fps=0.3 q=19.0 size=    2560kB time=00:00:02.57 bitrate=8136.8kbits/s speed=0.00439x     frame=  159 fps=0.3 q=19.0 size=    2560kB time=00:00:02.60 bitrate=8064.1kbits/s speed=0.0044x     frame=  161 fps=0.3 q=19.0 size=    2560kB time=00:00:02.60 bitrate=8064.1kbits/s speed=0.00437x     frame=  162 fps=0.3 q=19.0 size=    2560kB time=00:00:02.62 bitrate=7992.8kbits/s speed=0.00438x     frame=  162 fps=0.3 q=19.0 size=    2560kB time=00:00:02.64 bitrate=7922.7kbits/s speed=0.00439x     frame=  164 fps=0.3 q=19.0 size=    2560kB time=00:00:02.64 bitrate=7922.7kbits/s speed=0.00437x     frame=  165 fps=0.3 q=20.0 size=    2560kB time=00:00:02.67 bitrate=7853.8kbits/s speed=0.00438x     frame=  166 fps=0.3 q=19.0 size=    2560kB time=00:00:02.69 bitrate=7786.1kbits/s speed=0.00439x     frame=  166 fps=0.3 q=19.0 size=    2560kB time=00:00:02.71 bitrate=7719.5kbits/s speed=0.0044x     frame=  168 fps=0.3 q=19.0 size=    2560kB time=00:00:02.71 bitrate=7719.5kbits/s speed=0.00437x     frame=  169 fps=0.3 q=19.0 size=    2560kB time=00:00:02.73 bitrate=7654.1kbits/s speed=0.00438x     frame=  169 fps=0.3 q=19.0 size=    2560kB time=00:00:02.76 bitrate=7589.8kbits/s speed=0.0044x     frame=  171 fps=0.3 q=19.0 size=    2560kB time=00:00:02.76 bitrate=7589.8kbits/s speed=0.00437x     frame=  172 fps=0.3 q=19.0 size=    2560kB time=00:00:02.78 bitrate=7526.5kbits/s speed=0.00438x     frame=  173 fps=0.3 q=19.0 size=    2560kB time=00:00:02.80 bitrate=7464.3kbits/s speed=0.00439x     frame=  173 fps=0.3 q=19.0 size=    2560kB time=00:00:02.83 bitrate=7403.2kbits/s speed=0.0044x     frame=  175 fps=0.3 q=19.0 size=    2560kB time=00:00:02.83 bitrate=7403.2kbits/s speed=0.00438x     frame=  176 fps=0.3 q=19.0 size=    2560kB time=00:00:02.85 bitrate=7343.0kbits/s speed=0.00439x     frame=  177 fps=0.3 q=19.0 size=    2560kB time=00:00:02.87 bitrate=7283.7kbits/s speed=0.0044x     frame=  177 fps=0.3 q=19.0 size=    2560kB time=00:00:02.87 bitrate=7283.7kbits/s speed=0.00437x     frame=  179 fps=0.3 q=19.0 size=    2560kB time=00:00:02.90 bitrate=7225.5kbits/s speed=0.00438x     frame=  180 fps=0.3 q=19.0 size=    2560kB time=00:00:02.92 bitrate=7168.1kbits/s speed=0.00439x     frame=  180 fps=0.3 q=19.0 size=    2560kB time=00:00:02.94 bitrate=7111.7kbits/s speed=0.0044x     frame=  182 fps=0.3 q=19.0 size=    2816kB time=00:00:02.94 bitrate=7822.8kbits/s speed=0.00438x     frame=  183 fps=0.3 q=19.0 size=    2816kB time=00:00:02.97 bitrate=7761.7kbits/s speed=0.00439x     frame=  184 fps=0.3 q=19.0 size=    2816kB time=00:00:02.99 bitrate=7701.6kbits/s speed=0.0044x     frame=  184 fps=0.3 q=19.0 size=    2816kB time=00:00:02.99 bitrate=7701.6kbits/s speed=0.00437x     frame=  186 fps=0.3 q=19.0 size=    2816kB time=00:00:03.01 bitrate=7642.3kbits/s speed=0.00438x     frame=  187 fps=0.3 q=19.0 size=    2816kB time=00:00:03.04 bitrate=7584.0kbits/s speed=0.00439x     frame=  187 fps=0.3 q=19.0 size=    2816kB time=00:00:03.06 bitrate=7526.5kbits/s speed=0.0044x     frame=  189 fps=0.3 q=19.0 size=    2816kB time=00:00:03.06 bitrate=7526.5kbits/s speed=0.00438x     frame=  190 fps=0.3 q=18.0 size=    2816kB time=00:00:03.08 bitrate=7469.9kbits/s speed=0.00439x     frame=  191 fps=0.3 q=18.0 size=    2816kB time=00:00:03.11 bitrate=7414.2kbits/s speed=0.0044x     frame=  191 fps=0.3 q=18.0 size=    2816kB time=00:00:03.13 bitrate=7359.3kbits/s speed=0.00441x     frame=  193 fps=0.3 q=19.0 size=    2816kB time=00:00:03.13 bitrate=7359.3kbits/s speed=0.00439x     frame=  194 fps=0.3 q=18.0 size=    2816kB time=00:00:03.15 bitrate=7305.2kbits/s speed=0.0044x     frame=  194 fps=0.3 q=18.0 size=    2816kB time=00:00:03.18 bitrate=7251.8kbits/s speed=0.0044x     frame=  196 fps=0.3 q=18.0 size=    2816kB time=00:00:03.18 bitrate=7251.8kbits/s speed=0.00438x     frame=  197 fps=0.3 q=22.0 size=    3072kB time=00:00:03.20 bitrate=7853.8kbits/s speed=0.00439x     frame=  198 fps=0.3 q=21.0 size=    3072kB time=00:00:03.22 bitrate=7797.3kbits/s speed=0.0044x     frame=  198 fps=0.3 q=21.0 size=    3072kB time=00:00:03.25 bitrate=7741.6kbits/s speed=0.00441x     frame=  200 fps=0.3 q=20.0 size=    3072kB time=00:00:03.25 bitrate=7741.6kbits/s speed=0.00439x     frame=  201 fps=0.3 q=20.0 size=    3072kB time=00:00:03.27 bitrate=7686.7kbits/s speed=0.00439x     frame=  202 fps=0.3 q=20.0 size=    3072kB time=00:00:03.29 bitrate=7632.5kbits/s speed=0.0044x     frame=  202 fps=0.3 q=20.0 size=    3072kB time=00:00:03.29 bitrate=7632.5kbits/s speed=0.00438x     frame=  204 fps=0.3 q=19.0 size=    3072kB time=00:00:03.32 bitrate=7579.1kbits/s speed=0.00439x     frame=  205 fps=0.3 q=19.0 size=    3072kB time=00:00:03.34 bitrate=7526.5kbits/s speed=0.0044x     frame=  205 fps=0.3 q=19.0 size=    3072kB time=00:00:03.36 bitrate=7474.6kbits/s speed=0.00441x     frame=  207 fps=0.3 q=19.0 size=    3072kB time=00:00:03.36 bitrate=7474.6kbits/s speed=0.00439x     frame=  208 fps=0.3 q=18.0 size=    3072kB time=00:00:03.39 bitrate=7423.4kbits/s speed=0.00439x     frame=  209 fps=0.3 q=18.0 size=    3328kB time=00:00:03.41 bitrate=7987.3kbits/s speed=0.0044x     frame=  209 fps=0.3 q=18.0 size=    3328kB time=00:00:03.41 bitrate=7987.3kbits/s speed=0.00438x     frame=  211 fps=0.3 q=20.0 size=    3328kB time=00:00:03.43 bitrate=7933.3kbits/s speed=0.00439x     frame=  212 fps=0.3 q=21.0 size=    3328kB time=00:00:03.45 bitrate=7880.1kbits/s speed=0.0044x     frame=  212 fps=0.3 q=21.0 size=    3328kB time=00:00:03.48 bitrate=7827.6kbits/s speed=0.00441x     frame=  214 fps=0.3 q=22.0 size=    3328kB time=00:00:03.48 bitrate=7827.6kbits/s speed=0.00439x     frame=  215 fps=0.3 q=21.0 size=    3328kB time=00:00:03.50 bitrate=7775.7kbits/s speed=0.00439x     frame=  216 fps=0.3 q=20.0 size=    3328kB time=00:00:03.52 bitrate=7724.6kbits/s speed=0.0044x     frame=  216 fps=0.3 q=20.0 size=    3328kB time=00:00:03.52 bitrate=7724.6kbits/s speed=0.00438x     frame=  218 fps=0.3 q=19.0 size=    3328kB time=00:00:03.55 bitrate=7674.1kbits/s speed=0.00439x     frame=  219 fps=0.3 q=20.0 size=    3328kB time=00:00:03.57 bitrate=7624.3kbits/s speed=0.0044x     frame=  220 fps=0.3 q=20.0 size=    3328kB time=00:00:03.59 bitrate=7575.1kbits/s speed=0.0044x     frame=  220 fps=0.3 q=20.0 size=    3328kB time=00:00:03.59 bitrate=7575.1kbits/s speed=0.00438x     frame=  222 fps=0.3 q=21.0 size=    3584kB time=00:00:03.62 bitrate=8105.5kbits/s speed=0.00439x     frame=  223 fps=0.3 q=21.0 size=    3584kB time=00:00:03.64 bitrate=8053.8kbits/s speed=0.0044x     frame=  223 fps=0.3 q=21.0 size=    3584kB time=00:00:03.64 bitrate=8053.8kbits/s speed=0.00438x     frame=  225 fps=0.3 q=20.0 size=    3584kB time=00:00:03.66 bitrate=8002.9kbits/s speed=0.00439x     frame=  226 fps=0.3 q=19.0 size=    3584kB time=00:00:03.69 bitrate=7952.5kbits/s speed=0.0044x     frame=  227 fps=0.3 q=19.0 size=    3584kB time=00:00:03.71 bitrate=7902.8kbits/s speed=0.0044x     frame=  227 fps=0.3 q=19.0 size=    3584kB time=00:00:03.71 bitrate=7902.8kbits/s speed=0.00438x     frame=  229 fps=0.3 q=19.0 size=    3840kB time=00:00:03.73 bitrate=8414.7kbits/s speed=0.00439x     frame=  230 fps=0.3 q=20.0 size=    3840kB time=00:00:03.76 bitrate=8362.8kbits/s speed=0.0044x     frame=  230 fps=0.3 q=20.0 size=    3840kB time=00:00:03.76 bitrate=8362.8kbits/s speed=0.00438x     frame=  232 fps=0.3 q=21.0 size=    3840kB time=00:00:03.78 bitrate=8311.5kbits/s speed=0.00439x     frame=  233 fps=0.3 q=20.0 size=    3840kB time=00:00:03.80 bitrate=8260.8kbits/s speed=0.00439x     frame=  234 fps=0.3 q=20.0 size=    3840kB time=00:00:03.83 bitrate=8210.7kbits/s speed=0.0044x     frame=  234 fps=0.3 q=20.0 size=    3840kB time=00:00:03.83 bitrate=8210.7kbits/s speed=0.00438x     frame=  236 fps=0.3 q=19.0 size=    3840kB time=00:00:03.85 bitrate=8161.3kbits/s speed=0.00439x     frame=  237 fps=0.3 q=19.0 size=    3840kB time=00:00:03.87 bitrate=8112.4kbits/s speed=0.0044x     frame=  238 fps=0.3 q=19.0 size=    3840kB time=00:00:03.90 bitrate=8064.1kbits/s speed=0.0044x     frame=  238 fps=0.3 q=19.0 size=    3840kB time=00:00:03.90 bitrate=8064.1kbits/s speed=0.00438x     frame=  240 fps=0.3 q=19.0 size=    4096kB time=00:00:03.92 bitrate=8550.8kbits/s speed=0.00439x     frame=  241 fps=0.3 q=19.0 size=    4096kB time=00:00:03.94 bitrate=8500.5kbits/s speed=0.0044x     frame=  241 fps=0.3 q=19.0 size=    4096kB time=00:00:03.94 bitrate=8500.5kbits/s speed=0.00438x     frame=  243 fps=0.3 q=19.0 size=    4096kB time=00:00:03.97 bitrate=8450.8kbits/s speed=0.00439x     frame=  244 fps=0.3 q=19.0 size=    4096kB time=00:00:03.99 bitrate=8401.7kbits/s speed=0.00439x     frame=  245 fps=0.3 q=19.0 size=    4096kB time=00:00:04.01 bitrate=8353.1kbits/s speed=0.0044x     frame=  245 fps=0.3 q=19.0 size=    4096kB time=00:00:04.01 bitrate=8353.1kbits/s speed=0.00438x     frame=  247 fps=0.3 q=19.0 size=    4096kB time=00:00:04.04 bitrate=8305.1kbits/s speed=0.00439x     frame=  248 fps=0.3 q=20.0 size=    4096kB time=00:00:04.06 bitrate=8257.6kbits/s speed=0.00439x     frame=  248 fps=0.3 q=20.0 size=    4096kB time=00:00:04.06 bitrate=8257.6kbits/s speed=0.00438x     frame=  250 fps=0.3 q=21.0 size=    4096kB time=00:00:04.08 bitrate=8210.7kbits/s speed=0.00438x     frame=  251 fps=0.3 q=21.0 size=    4096kB time=00:00:04.10 bitrate=8164.3kbits/s speed=0.00439x     frame=  252 fps=0.3 q=21.0 size=    4096kB time=00:00:04.13 bitrate=8118.5kbits/s speed=0.0044x     frame=  252 fps=0.3 q=21.0 size=    4096kB time=00:00:04.13 bitrate=8118.5kbits/s speed=0.00438x     frame=  254 fps=0.3 q=24.0 size=    4096kB time=00:00:04.15 bitrate=8073.1kbits/s speed=0.00438x     frame=  255 fps=0.3 q=22.0 size=    4352kB time=00:00:04.17 bitrate=8530.0kbits/s speed=0.00439x     frame=  256 fps=0.3 q=21.0 size=    4352kB time=00:00:04.17 bitrate=8530.0kbits/s speed=0.00437x     frame=  256 fps=0.3 q=21.0 size=    4352kB time=00:00:04.20 bitrate=8482.9kbits/s speed=0.00438x     frame=  258 fps=0.3 q=20.0 size=    4352kB time=00:00:04.22 bitrate=8436.3kbits/s speed=0.00439x     frame=  259 fps=0.3 q=23.0 size=    4352kB time=00:00:04.24 bitrate=8390.2kbits/s speed=0.00439x     frame=  259 fps=0.3 q=23.0 size=    4352kB time=00:00:04.24 bitrate=8390.2kbits/s speed=0.00437x     frame=  261 fps=0.3 q=21.0 size=    4864kB time=00:00:04.27 bitrate=9326.3kbits/s speed=0.00438x     frame=  262 fps=0.3 q=21.0 size=    4864kB time=00:00:04.29 bitrate=9275.9kbits/s speed=0.00439x     frame=  263 fps=0.3 q=20.0 size=    4864kB time=00:00:04.29 bitrate=9275.9kbits/s speed=0.00437x     frame=  263 fps=0.3 q=20.0 size=    4864kB time=00:00:04.31 bitrate=9226.0kbits/s speed=0.00438x     frame=  265 fps=0.3 q=20.0 size=    4864kB time=00:00:04.34 bitrate=9176.7kbits/s speed=0.00438x     frame=  266 fps=0.3 q=20.0 size=    4864kB time=00:00:04.36 bitrate=9127.9kbits/s speed=0.00439x     frame=  266 fps=0.3 q=20.0 size=    4864kB time=00:00:04.36 bitrate=9127.9kbits/s speed=0.00437x     frame=  268 fps=0.3 q=20.0 size=    4864kB time=00:00:04.38 bitrate=9079.6kbits/s speed=0.00438x     frame=  269 fps=0.3 q=23.0 size=    4864kB time=00:00:04.41 bitrate=9031.8kbits/s speed=0.00439x     frame=  270 fps=0.3 q=22.0 size=    4864kB time=00:00:04.41 bitrate=9031.8kbits/s speed=0.00437x     frame=  270 fps=0.3 q=22.0 size=    4864kB time=00:00:04.43 bitrate=8984.5kbits/s speed=0.00438x     frame=  272 fps=0.3 q=22.0 size=    4864kB time=00:00:04.45 bitrate=8937.7kbits/s speed=0.00438x     frame=  273 fps=0.3 q=22.0 size=    4864kB time=00:00:04.48 bitrate=8891.4kbits/s speed=0.00439x     frame=  274 fps=0.3 q=22.0 size=    5120kB time=00:00:04.48 bitrate=9359.3kbits/s speed=0.00437x     frame=  274 fps=0.3 q=22.0 size=    5120kB time=00:00:04.50 bitrate=9311.1kbits/s speed=0.00438x     frame=  276 fps=0.3 q=23.0 size=    5120kB time=00:00:04.52 bitrate=9263.3kbits/s speed=0.00438x     frame=  277 fps=0.3 q=23.0 size=    5120kB time=00:00:04.55 bitrate=9216.1kbits/s speed=0.00439x     frame=  277 fps=0.3 q=23.0 size=    5120kB time=00:00:04.55 bitrate=9216.1kbits/s speed=0.00437x     frame=  279 fps=0.3 q=23.0 size=    5120kB time=00:00:04.57 bitrate=9169.3kbits/s speed=0.00438x     frame=  280 fps=0.3 q=22.0 size=    5120kB time=00:00:04.59 bitrate=9123.0kbits/s speed=0.00439x     frame=  281 fps=0.3 q=22.0 size=    5120kB time=00:00:04.59 bitrate=9123.0kbits/s speed=0.00437x     frame=  281 fps=0.3 q=22.0 size=    5120kB time=00:00:04.62 bitrate=9077.1kbits/s speed=0.00438x     frame=  283 fps=0.3 q=22.0 size=    5376kB time=00:00:04.64 bitrate=9483.3kbits/s speed=0.00438x     frame=  284 fps=0.3 q=23.0 size=    5376kB time=00:00:04.66 bitrate=9436.2kbits/s speed=0.00439x     frame=  284 fps=0.3 q=23.0 size=    5376kB time=00:00:04.66 bitrate=9436.2kbits/s speed=0.00437x     frame=  286 fps=0.3 q=22.0 size=    5376kB time=00:00:04.69 bitrate=9389.5kbits/s speed=0.00438x     frame=  287 fps=0.3 q=23.0 size=    5376kB time=00:00:04.71 bitrate=9343.2kbits/s speed=0.00438x     frame=  288 fps=0.3 q=22.0 size=    5632kB time=00:00:04.71 bitrate=9788.1kbits/s speed=0.00437x     frame=  288 fps=0.3 q=22.0 size=    5632kB time=00:00:04.73 bitrate=9740.1kbits/s speed=0.00437x     frame=  290 fps=0.3 q=22.0 size=    5632kB time=00:00:04.76 bitrate=9692.6kbits/s speed=0.00438x     frame=  291 fps=0.3 q=22.0 size=    5632kB time=00:00:04.78 bitrate=9645.6kbits/s speed=0.00438x     frame=  291 fps=0.3 q=22.0 size=    5632kB time=00:00:04.78 bitrate=9645.6kbits/s speed=0.00436x     frame=  293 fps=0.3 q=21.0 size=    5632kB time=00:00:04.80 bitrate=9599.0kbits/s speed=0.00437x     frame=  294 fps=0.3 q=21.0 size=    5632kB time=00:00:04.82 bitrate=9552.8kbits/s speed=0.00437x     frame=  295 fps=0.3 q=21.0 size=    5888kB time=00:00:04.82 bitrate=9987.0kbits/s speed=0.00435x     frame=  295 fps=0.3 q=21.0 size=    5888kB time=00:00:04.85 bitrate=9939.2kbits/s speed=0.00436x     frame=  297 fps=0.3 q=21.0 size=    5888kB time=00:00:04.87 bitrate=9891.9kbits/s speed=0.00436x     frame=  298 fps=0.3 q=21.0 size=    5888kB time=00:00:04.89 bitrate=9845.0kbits/s speed=0.00437x     frame=  299 fps=0.3 q=21.0 size=    5888kB time=00:00:04.89 bitrate=9845.0kbits/s speed=0.00435x     frame=  299 fps=0.3 q=21.0 size=    5888kB time=00:00:04.92 bitrate=9798.6kbits/s speed=0.00436x     frame=  301 fps=0.3 q=21.0 size=    5888kB time=00:00:04.94 bitrate=9752.6kbits/s speed=0.00436x     frame=  302 fps=0.3 q=22.0 size=    5888kB time=00:00:04.94 bitrate=9752.6kbits/s speed=0.00435x     frame=  302 fps=0.3 q=22.0 size=    5888kB time=00:00:04.96 bitrate=9707.0kbits/s speed=0.00435x     frame=  304 fps=0.3 q=21.0 size=    6144kB time=00:00:04.99 bitrate=10082.0kbits/s speed=0.00436x     frame=  305 fps=0.3 q=21.0 size=    6144kB time=00:00:05.01 bitrate=10035.3kbits/s speed=0.00436x     frame=  306 fps=0.3 q=21.0 size=    6144kB time=00:00:05.01 bitrate=10035.3kbits/s speed=0.00435x     frame=  306 fps=0.3 q=21.0 size=    6144kB time=00:00:05.03 bitrate=9989.0kbits/s speed=0.00435x     frame=  308 fps=0.3 q=21.0 size=    6144kB time=00:00:05.06 bitrate=9943.2kbits/s speed=0.00436x     frame=  309 fps=0.3 q=21.0 size=    6144kB time=00:00:05.06 bitrate=9943.2kbits/s speed=0.00434x     frame=  309 fps=0.3 q=21.0 size=    6144kB time=00:00:05.08 bitrate=9897.8kbits/s speed=0.00435x     frame=  311 fps=0.3 q=22.0 size=    6144kB time=00:00:05.10 bitrate=9852.8kbits/s speed=0.00435x     frame=  312 fps=0.3 q=22.0 size=    6144kB time=00:00:05.13 bitrate=9808.2kbits/s speed=0.00436x     frame=  313 fps=0.3 q=21.0 size=    6400kB time=00:00:05.13 bitrate=10216.9kbits/s speed=0.00434x     frame=  313 fps=0.3 q=21.0 size=    6400kB time=00:00:05.15 bitrate=10170.9kbits/s speed=0.00435x     frame=  315 fps=0.3 q=21.0 size=    6400kB time=00:00:05.17 bitrate=10125.3kbits/s speed=0.00435x     frame=  316 fps=0.3 q=21.0 size=    6400kB time=00:00:05.20 bitrate=10080.1kbits/s speed=0.00436x     frame=  317 fps=0.3 q=22.0 size=    6400kB time=00:00:05.20 bitrate=10080.1kbits/s speed=0.00434x     frame=  317 fps=0.3 q=22.0 size=    6400kB time=00:00:05.22 bitrate=10035.3kbits/s speed=0.00435x     frame=  319 fps=0.3 q=21.0 size=    6400kB time=00:00:05.24 bitrate=9990.9kbits/s speed=0.00435x     frame=  320 fps=0.3 q=22.0 size=    6400kB time=00:00:05.24 bitrate=9990.9kbits/s speed=0.00434x     frame=  320 fps=0.3 q=22.0 size=    6400kB time=00:00:05.27 bitrate=9946.9kbits/s speed=0.00434x     frame=  322 fps=0.3 q=22.0 size=    6656kB time=00:00:05.29 bitrate=10299.4kbits/s speed=0.00435x     frame=  323 fps=0.3 q=22.0 size=    6656kB time=00:00:05.31 bitrate=10254.4kbits/s speed=0.00435x     frame=  324 fps=0.3 q=22.0 size=    6656kB time=00:00:05.31 bitrate=10254.4kbits/s speed=0.00434x     frame=  324 fps=0.3 q=22.0 size=    6656kB time=00:00:05.34 bitrate=10209.8kbits/s speed=0.00434x     frame=  326 fps=0.3 q=22.0 size=    6656kB time=00:00:05.36 bitrate=10165.6kbits/s speed=0.00435x     frame=  327 fps=0.3 q=21.0 size=    6656kB time=00:00:05.36 bitrate=10165.6kbits/s speed=0.00433x     frame=  327 fps=0.3 q=21.0 size=    6656kB time=00:00:05.38 bitrate=10121.8kbits/s speed=0.00434x     frame=  329 fps=0.3 q=22.0 size=    6656kB time=00:00:05.41 bitrate=10078.3kbits/s speed=0.00434x     frame=  330 fps=0.3 q=23.0 size=    6656kB time=00:00:05.43 bitrate=10035.3kbits/s speed=0.00435x     frame=  331 fps=0.3 q=22.0 size=    6912kB time=00:00:05.43 bitrate=10421.2kbits/s speed=0.00434x     frame=  331 fps=0.3 q=22.0 size=    6912kB time=00:00:05.45 bitrate=10376.9kbits/s speed=0.00434x     frame=  333 fps=0.3 q=22.0 size=    6912kB time=00:00:05.47 bitrate=10332.9kbits/s speed=0.00434x     frame=  334 fps=0.3 q=22.0 size=    6912kB time=00:00:05.47 bitrate=10332.9kbits/s speed=0.00433x     frame=  335 fps=0.3 q=22.0 size=    6912kB time=00:00:05.50 bitrate=10289.3kbits/s speed=0.00433x     frame=  335 fps=0.3 q=22.0 size=    6912kB time=00:00:05.52 bitrate=10246.1kbits/s speed=0.00434x     frame=  337 fps=0.3 q=22.0 size=    6912kB time=00:00:05.54 bitrate=10203.2kbits/s speed=0.00434x     frame=  338 fps=0.3 q=23.0 size=    6912kB time=00:00:05.54 bitrate=10203.2kbits/s speed=0.00433x     frame=  338 fps=0.3 q=23.0 size=    6912kB time=00:00:05.57 bitrate=10160.7kbits/s speed=0.00433x     frame=  340 fps=0.3 q=22.0 size=    7168kB time=00:00:05.59 bitrate=10493.3kbits/s speed=0.00434x     frame=  341 fps=0.3 q=22.0 size=    7168kB time=00:00:05.59 bitrate=10493.3kbits/s speed=0.00433x     frame=  342 fps=0.3 q=21.0 size=    7168kB time=00:00:05.61 bitrate=10449.9kbits/s speed=0.00433x     frame=  342 fps=0.3 q=21.0 size=    7168kB time=00:00:05.64 bitrate=10406.9kbits/s speed=0.00434x     frame=  344 fps=0.3 q=21.0 size=    7168kB time=00:00:05.66 bitrate=10364.3kbits/s speed=0.00434x     frame=  345 fps=0.3 q=21.0 size=    7168kB time=00:00:05.66 bitrate=10364.3kbits/s speed=0.00433x     frame=  345 fps=0.3 q=21.0 size=    7168kB time=00:00:05.68 bitrate=10322.0kbits/s speed=0.00433x     frame=  347 fps=0.3 q=21.0 size=    7168kB time=00:00:05.71 bitrate=10280.0kbits/s speed=0.00434x     frame=  348 fps=0.3 q=21.0 size=    7168kB time=00:00:05.71 bitrate=10280.0kbits/s speed=0.00432x     frame=  349 fps=0.3 q=21.0 size=    7168kB time=00:00:05.73 bitrate=10238.4kbits/s speed=0.00433x     frame=  349 fps=0.3 q=21.0 size=    7168kB time=00:00:05.75 bitrate=10197.1kbits/s speed=0.00433x     frame=  351 fps=0.3 q=21.0 size=    7424kB time=00:00:05.78 bitrate=10518.9kbits/s speed=0.00433x     frame=  352 fps=0.3 q=22.0 size=    7424kB time=00:00:05.78 bitrate=10518.9kbits/s speed=0.00432x     frame=  353 fps=0.3 q=22.0 size=    7424kB time=00:00:05.80 bitrate=10476.8kbits/s speed=0.00433x     frame=  353 fps=0.3 q=22.0 size=    7424kB time=00:00:05.82 bitrate=10435.1kbits/s speed=0.00433x     frame=  355 fps=0.3 q=21.0 size=    7424kB time=00:00:05.85 bitrate=10393.7kbits/s speed=0.00433x     frame=  356 fps=0.3 q=21.0 size=    7424kB time=00:00:05.85 bitrate=10393.7kbits/s speed=0.00432x     frame=  356 fps=0.3 q=21.0 size=    7424kB time=00:00:05.87 bitrate=10352.6kbits/s speed=0.00432x     frame=  358 fps=0.3 q=22.0 size=    7424kB time=00:00:05.89 bitrate=10311.8kbits/s speed=0.00433x     frame=  359 fps=0.3 q=22.0 size=    7424kB time=00:00:05.89 bitrate=10311.8kbits/s speed=0.00431x     frame=  360 fps=0.3 q=22.0 size=    7680kB time=00:00:05.92 bitrate=10625.6kbits/s speed=0.00432x     frame=  360 fps=0.3 q=22.0 size=    7680kB time=00:00:05.94 bitrate=10584.1kbits/s speed=0.00432x     frame=  362 fps=0.3 q=22.0 size=    7680kB time=00:00:05.96 bitrate=10542.9kbits/s speed=0.00433x     frame=  363 fps=0.3 q=22.0 size=    7680kB time=00:00:05.96 bitrate=10542.9kbits/s speed=0.00431x     frame=  363 fps=0.3 q=22.0 size=    7680kB time=00:00:05.99 bitrate=10502.0kbits/s speed=0.00432x     frame=  365 fps=0.3 q=22.0 size=    7680kB time=00:00:06.01 bitrate=10461.5kbits/s speed=0.00432x     frame=  366 fps=0.3 q=22.0 size=    7680kB time=00:00:06.01 bitrate=10461.5kbits/s speed=0.00431x     frame=  367 fps=0.3 q=23.0 size=    7680kB time=00:00:06.03 bitrate=10421.2kbits/s speed=0.00431x     frame=  367 fps=0.3 q=23.0 size=    7680kB time=00:00:06.06 bitrate=10381.3kbits/s speed=0.00432x     frame=  369 fps=0.3 q=23.0 size=    7936kB time=00:00:06.08 bitrate=10686.4kbits/s speed=0.00432x     frame=  370 fps=0.3 q=23.0 size=    7936kB time=00:00:06.08 bitrate=10686.4kbits/s speed=0.00431x     frame=  371 fps=0.3 q=23.0 size=    7936kB time=00:00:06.10 bitrate=10645.8kbits/s speed=0.00432x     frame=  371 fps=0.3 q=23.0 size=    7936kB time=00:00:06.13 bitrate=10605.4kbits/s speed=0.00432x     frame=  373 fps=0.3 q=22.0 size=    7936kB time=00:00:06.13 bitrate=10605.4kbits/s speed=0.00431x     frame=  374 fps=0.3 q=22.0 size=    7936kB time=00:00:06.15 bitrate=10565.4kbits/s speed=0.00431x     frame=  374 fps=0.3 q=22.0 size=    7936kB time=00:00:06.17 bitrate=10525.7kbits/s speed=0.00432x     frame=  376 fps=0.3 q=22.0 size=    8192kB time=00:00:06.19 bitrate=10824.5kbits/s speed=0.00432x     frame=  377 fps=0.3 q=22.0 size=    8192kB time=00:00:06.19 bitrate=10824.5kbits/s speed=0.00431x     frame=  378 fps=0.3 q=21.0 size=    8192kB time=00:00:06.22 bitrate=10784.2kbits/s speed=0.00431x     frame=  378 fps=0.3 q=21.0 size=    8192kB time=00:00:06.24 bitrate=10744.1kbits/s speed=0.00432x     frame=  380 fps=0.3 q=21.0 size=    8192kB time=00:00:06.24 bitrate=10744.1kbits/s speed=0.0043x     frame=  381 fps=0.3 q=21.0 size=    8192kB time=00:00:06.26 bitrate=10704.3kbits/s speed=0.00431x     frame=  381 fps=0.3 q=21.0 size=    8192kB time=00:00:06.29 bitrate=10664.8kbits/s speed=0.00431x     frame=  383 fps=0.3 q=21.0 size=    8192kB time=00:00:06.31 bitrate=10625.6kbits/s speed=0.00432x     frame=  384 fps=0.3 q=21.0 size=    8448kB time=00:00:06.31 bitrate=10957.6kbits/s speed=0.0043x     frame=  385 fps=0.3 q=21.0 size=    8448kB time=00:00:06.33 bitrate=10917.5kbits/s speed=0.00431x     frame=  385 fps=0.3 q=21.0 size=    8448kB time=00:00:06.36 bitrate=10877.6kbits/s speed=0.00431x     frame=  387 fps=0.3 q=21.0 size=    8448kB time=00:00:06.36 bitrate=10877.6kbits/s speed=0.0043x     frame=  388 fps=0.3 q=21.0 size=    8448kB time=00:00:06.38 bitrate=10838.1kbits/s speed=0.00431x     frame=  388 fps=0.3 q=21.0 size=    8448kB time=00:00:06.40 bitrate=10798.8kbits/s speed=0.00431x     frame=  389 fps=0.3 q=22.0 size=    8448kB time=00:00:06.43 bitrate=10759.8kbits/s speed=0.00431x     frame=  391 fps=0.3 q=22.0 size=    8448kB time=00:00:06.43 bitrate=10759.8kbits/s speed=0.0043x     frame=  392 fps=0.3 q=21.0 size=    8448kB time=00:00:06.45 bitrate=10721.1kbits/s speed=0.00431x     frame=  392 fps=0.3 q=21.0 size=    8448kB time=00:00:06.47 bitrate=10682.7kbits/s speed=0.00431x     frame=  394 fps=0.3 q=21.0 size=    8704kB time=00:00:06.47 bitrate=11006.4kbits/s speed=0.0043x     frame=  395 fps=0.3 q=21.0 size=    8704kB time=00:00:06.50 bitrate=10967.1kbits/s speed=0.0043x     frame=  396 fps=0.3 q=22.0 size=    8704kB time=00:00:06.52 bitrate=10928.1kbits/s speed=0.00431x     frame=  396 fps=0.3 q=22.0 size=    8704kB time=00:00:06.54 bitrate=10889.3kbits/s speed=0.00431x     frame=  398 fps=0.3 q=21.0 size=    8704kB time=00:00:06.54 bitrate=10889.3kbits/s speed=0.0043x     frame=  399 fps=0.3 q=21.0 size=    8704kB time=00:00:06.57 bitrate=10850.8kbits/s speed=0.0043x     frame=  399 fps=0.3 q=21.0 size=    8704kB time=00:00:06.59 bitrate=10812.6kbits/s speed=0.00431x     frame=  401 fps=0.3 q=21.0 size=    8704kB time=00:00:06.61 bitrate=10774.7kbits/s speed=0.00431x     frame=  402 fps=0.3 q=21.0 size=    8960kB time=00:00:06.61 bitrate=11091.6kbits/s speed=0.0043x     frame=  403 fps=0.3 q=21.0 size=    8960kB time=00:00:06.64 bitrate=11052.8kbits/s speed=0.0043x     frame=  403 fps=0.3 q=21.0 size=    8960kB time=00:00:06.66 bitrate=11014.3kbits/s speed=0.0043x     frame=  405 fps=0.3 q=22.0 size=    8960kB time=00:00:06.66 bitrate=11014.3kbits/s speed=0.00429x     frame=  406 fps=0.3 q=21.0 size=    8960kB time=00:00:06.68 bitrate=10976.1kbits/s speed=0.0043x     frame=  406 fps=0.3 q=21.0 size=    8960kB time=00:00:06.71 bitrate=10938.1kbits/s speed=0.0043x     frame=  408 fps=0.3 q=21.0 size=    8960kB time=00:00:06.73 bitrate=10900.4kbits/s speed=0.0043x     frame=  409 fps=0.3 q=21.0 size=    8960kB time=00:00:06.73 bitrate=10900.4kbits/s speed=0.00429x     frame=  410 fps=0.3 q=21.0 size=    8960kB time=00:00:06.75 bitrate=10862.9kbits/s speed=0.0043x     frame=  410 fps=0.3 q=21.0 size=    8960kB time=00:00:06.78 bitrate=10825.7kbits/s speed=0.0043x     frame=  412 fps=0.3 q=22.0 size=    8960kB time=00:00:06.78 bitrate=10825.7kbits/s speed=0.00429x     frame=  413 fps=0.3 q=22.0 size=    8960kB time=00:00:06.80 bitrate=10788.8kbits/s speed=0.00429x     frame=  414 fps=0.3 q=22.0 size=    9216kB time=00:00:06.82 bitrate=11059.3kbits/s speed=0.0043x     frame=  414 fps=0.3 q=22.0 size=    9216kB time=00:00:06.84 bitrate=11021.8kbits/s speed=0.0043x     frame=  416 fps=0.3 q=22.0 size=    9216kB time=00:00:06.84 bitrate=11021.8kbits/s speed=0.00429x     frame=  417 fps=0.3 q=22.0 size=    9216kB time=00:00:06.87 bitrate=10984.5kbits/s speed=0.00429x     frame=  417 fps=0.3 q=22.0 size=    9216kB time=00:00:06.89 bitrate=10947.5kbits/s speed=0.00429x     frame=  419 fps=0.3 q=22.0 size=    9216kB time=00:00:06.89 bitrate=10947.5kbits/s speed=0.00428x     frame=  420 fps=0.3 q=22.0 size=    9216kB time=00:00:06.91 bitrate=10910.8kbits/s speed=0.00429x     frame=  421 fps=0.3 q=23.0 size=    9216kB time=00:00:06.94 bitrate=10874.3kbits/s speed=0.00429x     frame=  421 fps=0.3 q=23.0 size=    9216kB time=00:00:06.96 bitrate=10838.1kbits/s speed=0.0043x     frame=  423 fps=0.3 q=23.0 size=    9472kB time=00:00:06.96 bitrate=11139.1kbits/s speed=0.00429x     frame=  424 fps=0.3 q=23.0 size=    9472kB time=00:00:06.98 bitrate=11102.1kbits/s speed=0.00429x     frame=  424 fps=0.3 q=23.0 size=    9472kB time=00:00:07.01 bitrate=11065.4kbits/s speed=0.00429x     frame=  426 fps=0.3 q=23.0 size=    9472kB time=00:00:07.01 bitrate=11065.4kbits/s speed=0.00428x     frame=  427 fps=0.3 q=22.0 size=    9472kB time=00:00:07.03 bitrate=11028.8kbits/s speed=0.00429x     frame=  428 fps=0.3 q=22.0 size=    9472kB time=00:00:07.05 bitrate=10992.6kbits/s speed=0.00429x     frame=  428 fps=0.3 q=22.0 size=    9472kB time=00:00:07.08 bitrate=10956.5kbits/s speed=0.0043x     frame=  430 fps=0.3 q=22.0 size=    9728kB time=00:00:07.08 bitrate=11252.6kbits/s speed=0.00428x     frame=  431 fps=0.3 q=23.0 size=    9728kB time=00:00:07.10 bitrate=11215.9kbits/s speed=0.00429x     frame=  432 fps=0.3 q=23.0 size=    9728kB time=00:00:07.12 bitrate=11179.3kbits/s speed=0.00429x     frame=  432 fps=0.3 q=23.0 size=    9728kB time=00:00:07.12 bitrate=11179.3kbits/s speed=0.00428x     frame=  434 fps=0.3 q=23.0 size=    9728kB time=00:00:07.15 bitrate=11143.0kbits/s speed=0.00429x     frame=  435 fps=0.3 q=22.0 size=    9728kB time=00:00:07.17 bitrate=11107.0kbits/s speed=0.00429x     frame=  435 fps=0.3 q=22.0 size=    9728kB time=00:00:07.19 bitrate=11071.1kbits/s speed=0.00429x     frame=  437 fps=0.3 q=21.0 size=    9984kB time=00:00:07.19 bitrate=11362.5kbits/s speed=0.00428x     frame=  438 fps=0.3 q=21.0 size=    9984kB time=00:00:07.22 bitrate=11326.0kbits/s speed=0.00429x     frame=  439 fps=0.3 q=22.0 size=    9984kB time=00:00:07.24 bitrate=11289.7kbits/s speed=0.00429x     frame=  439 fps=0.3 q=22.0 size=    9984kB time=00:00:07.26 bitrate=11253.6kbits/s speed=0.0043x     frame=  441 fps=0.3 q=21.0 size=    9984kB time=00:00:07.26 bitrate=11253.6kbits/s speed=0.00429x     frame=  442 fps=0.3 q=21.0 size=   10240kB time=00:00:07.29 bitrate=11505.4kbits/s speed=0.00429x     frame=  442 fps=0.3 q=21.0 size=   10240kB time=00:00:07.31 bitrate=11468.9kbits/s speed=0.00429x     frame=  444 fps=0.3 q=21.0 size=   10240kB time=00:00:07.31 bitrate=11468.9kbits/s speed=0.00428x     frame=  445 fps=0.3 q=21.0 size=   10240kB time=00:00:07.33 bitrate=11432.6kbits/s speed=0.00429x     frame=  446 fps=0.3 q=21.0 size=   10240kB time=00:00:07.36 bitrate=11396.5kbits/s speed=0.00429x     frame=  446 fps=0.3 q=21.0 size=   10240kB time=00:00:07.38 bitrate=11360.7kbits/s speed=0.00429x     frame=  448 fps=0.3 q=21.0 size=   10240kB time=00:00:07.38 bitrate=11360.7kbits/s speed=0.00428x     frame=  449 fps=0.3 q=21.0 size=   10240kB time=00:00:07.40 bitrate=11325.0kbits/s speed=0.00429x     frame=  450 fps=0.3 q=21.0 size=   10496kB time=00:00:07.43 bitrate=11571.9kbits/s speed=0.00429x     frame=  450 fps=0.3 q=21.0 size=   10496kB time=00:00:07.43 bitrate=11571.9kbits/s speed=0.00428x     frame=  452 fps=0.3 q=21.0 size=   10496kB time=00:00:07.45 bitrate=11535.8kbits/s speed=0.00429x     frame=  453 fps=0.3 q=21.0 size=   10496kB time=00:00:07.47 bitrate=11500.0kbits/s speed=0.00429x     frame=  453 fps=0.3 q=21.0 size=   10496kB time=00:00:07.50 bitrate=11464.4kbits/s speed=0.00429x     frame=  455 fps=0.3 q=21.0 size=   10496kB time=00:00:07.50 bitrate=11464.4kbits/s speed=0.00428x     frame=  456 fps=0.3 q=21.0 size=   10496kB time=00:00:07.52 bitrate=11429.0kbits/s speed=0.00429x     frame=  457 fps=0.3 q=21.0 size=   10496kB time=00:00:07.54 bitrate=11393.9kbits/s speed=0.00429x     frame=  457 fps=0.3 q=21.0 size=   10496kB time=00:00:07.54 bitrate=11393.9kbits/s speed=0.00428x     frame=  459 fps=0.3 q=21.0 size=   10496kB time=00:00:07.56 bitrate=11358.9kbits/s speed=0.00429x     frame=  460 fps=0.3 q=21.0 size=   10752kB time=00:00:07.59 bitrate=11600.4kbits/s speed=0.00429x     frame=  460 fps=0.3 q=21.0 size=   10752kB time=00:00:07.61 bitrate=11565.0kbits/s speed=0.00429x     frame=  462 fps=0.3 q=21.0 size=   10752kB time=00:00:07.61 bitrate=11565.0kbits/s speed=0.00428x     frame=  463 fps=0.3 q=21.0 size=   10752kB time=00:00:07.63 bitrate=11529.9kbits/s speed=0.00429x     frame=  464 fps=0.3 q=21.0 size=   10752kB time=00:00:07.66 bitrate=11494.9kbits/s speed=0.00429x     frame=  464 fps=0.3 q=21.0 size=   10752kB time=00:00:07.66 bitrate=11494.9kbits/s speed=0.00428x     frame=  466 fps=0.3 q=21.0 size=   10752kB time=00:00:07.68 bitrate=11460.2kbits/s speed=0.00429x     frame=  467 fps=0.3 q=21.0 size=   10752kB time=00:00:07.70 bitrate=11425.7kbits/s speed=0.00429x     frame=  468 fps=0.3 q=20.0 size=   10752kB time=00:00:07.73 bitrate=11391.4kbits/s speed=0.00429x     frame=  468 fps=0.3 q=20.0 size=   10752kB time=00:00:07.73 bitrate=11391.4kbits/s speed=0.00428x     frame=  470 fps=0.3 q=20.0 size=   10752kB time=00:00:07.75 bitrate=11357.3kbits/s speed=0.00429x     frame=  471 fps=0.3 q=20.0 size=   10752kB time=00:00:07.77 bitrate=11323.3kbits/s speed=0.00429x     frame=  471 fps=0.3 q=20.0 size=   10752kB time=00:00:07.77 bitrate=11323.3kbits/s speed=0.00428x     frame=  473 fps=0.3 q=20.0 size=   11008kB time=00:00:07.80 bitrate=11558.4kbits/s speed=0.00429x     frame=  474 fps=0.3 q=20.0 size=   11008kB time=00:00:07.82 bitrate=11524.2kbits/s speed=0.00429x     frame=  475 fps=0.3 q=20.0 size=   11008kB time=00:00:07.84 bitrate=11490.1kbits/s speed=0.00429x     frame=  475 fps=0.3 q=20.0 size=   11008kB time=00:00:07.84 bitrate=11490.1kbits/s speed=0.00428x     frame=  477 fps=0.3 q=20.0 size=   11008kB time=00:00:07.87 bitrate=11456.2kbits/s speed=0.00429x     frame=  478 fps=0.3 q=20.0 size=   11008kB time=00:00:07.89 bitrate=11422.5kbits/s speed=0.00429x     frame=  478 fps=0.3 q=20.0 size=   11008kB time=00:00:07.91 bitrate=11389.0kbits/s speed=0.00429x     frame=  480 fps=0.3 q=20.0 size=   11008kB time=00:00:07.91 bitrate=11389.0kbits/s speed=0.00428x     frame=  481 fps=0.3 q=20.0 size=   11008kB time=00:00:07.94 bitrate=11355.7kbits/s speed=0.00429x     frame=  482 fps=0.3 q=20.0 size=   11008kB time=00:00:07.96 bitrate=11322.6kbits/s speed=0.00429x     frame=  482 fps=0.3 q=20.0 size=   11008kB time=00:00:07.96 bitrate=11322.6kbits/s speed=0.00428x     frame=  484 fps=0.3 q=20.0 size=   11264kB time=00:00:07.98 bitrate=11552.2kbits/s speed=0.00429x     frame=  485 fps=0.3 q=20.0 size=   11264kB time=00:00:08.01 bitrate=11518.7kbits/s speed=0.00429x     frame=  486 fps=0.3 q=20.0 size=   11264kB time=00:00:08.03 bitrate=11485.4kbits/s speed=0.00429x     frame=  486 fps=0.3 q=20.0 size=   11264kB time=00:00:08.03 bitrate=11485.4kbits/s speed=0.00428x     frame=  488 fps=0.3 q=20.0 size=   11264kB time=00:00:08.05 bitrate=11452.3kbits/s speed=0.00429x     frame=  489 fps=0.3 q=20.0 size=   11264kB time=00:00:08.08 bitrate=11419.4kbits/s speed=0.00429x     frame=  489 fps=0.3 q=20.0 size=   11264kB time=00:00:08.08 bitrate=11419.4kbits/s speed=0.00428x     frame=  491 fps=0.3 q=20.0 size=   11264kB time=00:00:08.10 bitrate=11386.7kbits/s speed=0.00429x     frame=  492 fps=0.3 q=20.0 size=   11264kB time=00:00:08.12 bitrate=11354.2kbits/s speed=0.00429x     frame=  493 fps=0.3 q=20.0 size=   11264kB time=00:00:08.15 bitrate=11321.8kbits/s speed=0.00429x     frame=  493 fps=0.3 q=20.0 size=   11264kB time=00:00:08.15 bitrate=11321.8kbits/s speed=0.00428x     frame=  495 fps=0.3 q=20.0 size=   11520kB time=00:00:08.17 bitrate=11546.2kbits/s speed=0.00429x     frame=  496 fps=0.3 q=20.0 size=   11520kB time=00:00:08.19 bitrate=11513.5kbits/s speed=0.00429x     frame=  496 fps=0.3 q=20.0 size=   11520kB time=00:00:08.19 bitrate=11513.5kbits/s speed=0.00428x     frame=  498 fps=0.3 q=20.0 size=   11520kB time=00:00:08.21 bitrate=11481.0kbits/s speed=0.00429x     frame=  499 fps=0.3 q=21.0 size=   11520kB time=00:00:08.24 bitrate=11448.7kbits/s speed=0.00429x     frame=  500 fps=0.3 q=21.0 size=   11520kB time=00:00:08.26 bitrate=11416.5kbits/s speed=0.00429x     frame=  500 fps=0.3 q=21.0 size=   11520kB time=00:00:08.26 bitrate=11416.5kbits/s speed=0.00428x     frame=  502 fps=0.3 q=21.0 size=   11520kB time=00:00:08.28 bitrate=11384.5kbits/s speed=0.00429x     frame=  503 fps=0.3 q=18.0 size=   11520kB time=00:00:08.31 bitrate=11352.7kbits/s speed=0.00429x     frame=  503 fps=0.3 q=18.0 size=   11520kB time=00:00:08.31 bitrate=11352.7kbits/s speed=0.00428x     frame=  505 fps=0.3 q=23.0 size=   11520kB time=00:00:08.33 bitrate=11321.1kbits/s speed=0.00429x     frame=  506 fps=0.3 q=23.0 size=   11520kB time=00:00:08.35 bitrate=11289.6kbits/s speed=0.00429x     frame=  507 fps=0.3 q=22.0 size=   11520kB time=00:00:08.38 bitrate=11258.4kbits/s speed=0.00429x     frame=  507 fps=0.3 q=22.0 size=   11520kB time=00:00:08.38 bitrate=11258.4kbits/s speed=0.00428x     frame=  509 fps=0.3 q=23.0 size=   11776kB time=00:00:08.40 bitrate=11476.8kbits/s speed=0.00429x     frame=  510 fps=0.3 q=23.0 size=   11776kB time=00:00:08.42 bitrate=11445.1kbits/s speed=0.00429x     frame=  511 fps=0.3 q=23.0 size=   12032kB time=00:00:08.42 bitrate=11694.0kbits/s speed=0.00428x     frame=  511 fps=0.3 q=23.0 size=   12032kB time=00:00:08.45 bitrate=11661.8kbits/s speed=0.00429x     frame=  513 fps=0.3 q=22.0 size=   12032kB time=00:00:08.47 bitrate=11629.9kbits/s speed=0.00429x     frame=  514 fps=0.3 q=22.0 size=   12032kB time=00:00:08.49 bitrate=11598.1kbits/s speed=0.00429x     frame=  514 fps=0.3 q=22.0 size=   12032kB time=00:00:08.49 bitrate=11598.1kbits/s speed=0.00428x     frame=  516 fps=0.3 q=22.0 size=   12032kB time=00:00:08.52 bitrate=11566.5kbits/s speed=0.00429x     frame=  517 fps=0.3 q=22.0 size=   12288kB time=00:00:08.54 bitrate=11780.5kbits/s speed=0.00429x     frame=  518 fps=0.3 q=22.0 size=   12288kB time=00:00:08.54 bitrate=11780.5kbits/s speed=0.00428x     frame=  518 fps=0.3 q=22.0 size=   12288kB time=00:00:08.56 bitrate=11748.6kbits/s speed=0.00429x     frame=  520 fps=0.3 q=23.0 size=   12288kB time=00:00:08.59 bitrate=11716.8kbits/s speed=0.00429x     frame=  521 fps=0.3 q=22.0 size=   12288kB time=00:00:08.61 bitrate=11685.2kbits/s speed=0.00429x     frame=  521 fps=0.3 q=22.0 size=   12288kB time=00:00:08.61 bitrate=11685.2kbits/s speed=0.00428x     frame=  523 fps=0.3 q=22.0 size=   12288kB time=00:00:08.63 bitrate=11653.8kbits/s speed=0.00429x     frame=  524 fps=0.3 q=22.0 size=   12544kB time=00:00:08.66 bitrate=11864.7kbits/s speed=0.00429x     frame=  525 fps=0.3 q=22.0 size=   12544kB time=00:00:08.68 bitrate=11833.0kbits/s speed=0.00429x     frame=  525 fps=0.3 q=22.0 size=   12544kB time=00:00:08.68 bitrate=11833.0kbits/s speed=0.00429x     frame=  527 fps=0.3 q=22.0 size=   12544kB time=00:00:08.70 bitrate=11801.4kbits/s speed=0.00429x     frame=  528 fps=0.3 q=22.0 size=   12544kB time=00:00:08.73 bitrate=11770.1kbits/s speed=0.00429x     frame=  529 fps=0.3 q=22.0 size=   12544kB time=00:00:08.73 bitrate=11770.1kbits/s speed=0.00428x     frame=  529 fps=0.3 q=22.0 size=   12544kB time=00:00:08.75 bitrate=11738.8kbits/s speed=0.00429x     frame=  531 fps=0.3 q=22.0 size=   12800kB time=00:00:08.77 bitrate=11946.7kbits/s speed=0.00429x     frame=  532 fps=0.3 q=22.0 size=   12800kB time=00:00:08.80 bitrate=11915.2kbits/s speed=0.00429x     frame=  532 fps=0.3 q=22.0 size=   12800kB time=00:00:08.80 bitrate=11915.2kbits/s speed=0.00429x     frame=  534 fps=0.3 q=22.0 size=   12800kB time=00:00:08.82 bitrate=11883.8kbits/s speed=0.00429x     frame=  535 fps=0.3 q=22.0 size=   12800kB time=00:00:08.84 bitrate=11852.6kbits/s speed=0.00429x     frame=  536 fps=0.3 q=22.0 size=   12800kB time=00:00:08.84 bitrate=11852.6kbits/s speed=0.00428x     frame=  536 fps=0.3 q=22.0 size=   12800kB time=00:00:08.87 bitrate=11821.6kbits/s speed=0.00429x     frame=  538 fps=0.3 q=22.0 size=   12800kB time=00:00:08.89 bitrate=11790.7kbits/s speed=0.00429x     frame=  539 fps=0.3 q=22.0 size=   13056kB time=00:00:08.91 bitrate=11995.2kbits/s speed=0.00429x     frame=  539 fps=0.3 q=22.0 size=   13056kB time=00:00:08.91 bitrate=11995.2kbits/s speed=0.00429x     frame=  540 fps=0.3 q=22.0 size=   13056kB time=00:00:08.93 bitrate=11964.1kbits/s speed=0.00429x     frame=  540 fps=0.3 q=-1.0 Lsize=   13454kB time=00:00:09.00 bitrate=12233.8kbits/s speed=0.00433x    
video:13298kB audio:145kB subtitle:0kB other streams:0kB global headers:0kB muxing overhead: 0.085910%
[libx264 @ 00000255ef60b540] frame I:3     Avg QP:18.33  size:325842
[libx264 @ 00000255ef60b540] frame P:537   Avg QP:20.13  size: 23536
[libx264 @ 00000255ef60b540] mb I  I16..4: 100.0%  0.0%  0.0%
[libx264 @ 00000255ef60b540] mb P  I16..4:  7.0%  0.0%  0.0%  P16..4: 14.6%  0.0%  0.0%  0.0%  0.0%    skip:78.4%
[libx264 @ 00000255ef60b540] coded y,uvDC,uvAC intra: 7.1% 23.9% 1.5% inter: 3.3% 4.5% 0.0%
[libx264 @ 00000255ef60b540] i16 v,h,dc,p: 38% 25% 20% 16%
[libx264 @ 00000255ef60b540] i8c dc,h,v,p: 54% 22% 18%  5%
[libx264 @ 00000255ef60b540] kb/s:12103.46
[aac @ 00000255ef60d400] Qavg: 146.794
 

 

Edited by Cor

Share this post


Link to post

Hey,

If you had any insight on that last problem I've described, I'd really appreciate it.

I've changed motherboard/processor/ram/ssd in my computer since then, and it's still occurring every time I run a demolist. I've changed the installation path of jedi academy from the program files to Documents, I tried pretty much all variations of settings in the demolist batch file, but no change. 

If you don't have that problem, I MUST be doing something wrong, but I can't find what it is.

Thanks again.

Share this post


Link to post

I'd like to give an update on this.

Even though I don't see any logical reason for it, setting r_dynamicglow 1 (instead of 0) allows demolist to capture more projects, around 6 or 7 before the error pops up (instead of 2).

I've captured around 800 projects in jamme now, and this is the only setting that made a difference for this issue. My last 70 projects were now captured with r_dynamicglow 1 and it has captured 6 or 7 every time before the error pops up.

I'm conscious I seem to be alone with this problem but perhaps this will shed some light on it for you ent, or anyone else.

Share this post


Link to post

Create an account or sign in to comment

You need to be a member in order to leave a comment

Create an account

Sign up for a new account in our community. It's easy!

Register a new account

Sign in

Already have an account? Sign in here.

Sign In Now

×
×
  • Create New...